<?xml version="1.0" standalone="no"?>
<!DOCTYPE svg PUBLIC "-//W3C//DTD SVG 1.1//EN" "http://www.w3.org/Graphics/SVG/1.1/DTD/svg11.dtd" >
<svg xmlns="http://www.w3.org/2000/svg">
<metadata>Generated by IcoMoon</metadata>
<defs>
<font id="icomoon" horiz-adv-x="1024">
<font-face units-per-em="1024" ascent="960" descent="-64" />
<missing-glyph horiz-adv-x="1024" />
<glyph unicode="&#x20;" horiz-adv-x="512" d="" />
<glyph unicode="&#xe900;" glyph-name="calling" d="M812.138 606.897c0-39.003-31.618-70.621-70.621-70.621s-70.621 31.618-70.621 70.621c0 39.003 31.618 70.621 70.621 70.621s70.621-31.618 70.621-70.621zM1024 606.897c0-39.003-31.618-70.621-70.621-70.621s-70.621 31.618-70.621 70.621c0 39.003 31.618 70.621 70.621 70.621s70.621-31.618 70.621-70.621zM600.276 606.897c0-39.003-31.618-70.621-70.621-70.621s-70.621 31.618-70.621 70.621c0 39.003 31.618 70.621 70.621 70.621s70.621-31.618 70.621-70.621zM424.024 360.024c-97.739 97.739-119.808 195.478-124.787 234.637-1.391 10.828 2.335 21.686 10.081 29.378l79.095 79.060c11.635 11.628 13.7 29.749 4.979 43.697l-125.934 195.549c-9.648 15.444-29.459 21.018-45.745 12.871l-202.169-95.214c-13.17-6.485-20.916-20.477-19.421-35.081 10.593-100.634 54.466-348.019 297.578-591.148s490.461-286.985 591.148-297.578c14.603-1.495 28.596 6.251 35.081 19.421l95.214 202.169c8.117 16.251 2.58 36.008-12.8 45.674l-195.549 125.899c-13.939 8.73-32.060 6.68-43.697-4.943l-79.060-79.095c-7.692-7.746-18.551-11.472-29.378-10.081-39.159 4.979-136.898 27.048-234.637 124.787z" />
<glyph unicode="&#xe901;" glyph-name="clock" d="M512 960c-282.318 0-512-229.682-512-512s229.682-512 512-512 512 229.682 512 512-229.682 512-512 512zM744.202 377.33h-242.298c-0.488 0-0.96 0.058-1.442 0.072-0.482-0.018-0.954-0.072-1.442-0.072-23.896 0-43.268 19.372-43.268 43.268v351.908c0 23.896 19.372 43.268 43.268 43.268s43.268-19.372 43.268-43.268v-308.642h201.916c23.896 0 43.268-19.372 43.268-43.268s-19.374-43.266-43.27-43.266z" />
<glyph unicode="&#xe902;" glyph-name="email" d="M461.804 453.254c26.738-17.826 73.655-17.828 100.399 0.002 0.004 0.002 0.010 0.006 0.014 0.008l455.734 303.824c-14.948 43.232-56.036 74.377-104.285 74.377h-803.332c-48.25 0-89.337-31.144-104.287-74.377l455.744-303.826c0.006-0.004 0.010-0.004 0.014-0.008zM595.497 403.34c-0.006-0.004-0.010-0.008-0.014-0.010-23.404-15.602-53.448-23.404-83.483-23.404-30.040 0-60.072 7.8-83.479 23.406-0.004 0.002-0.006 0.004-0.010 0.006l-428.511 285.672v-514.148c0-60.834 49.494-110.327 110.333-110.327h803.338c60.836 0 110.329 49.492 110.329 110.327v514.148z" />
<glyph unicode="&#xe903;" glyph-name="placeholder" d="M850.753 781.395c-75.014 114.307-198.847 178.605-338.158 178.605-138.121 0-261.953-64.298-339.349-178.605-77.395-111.926-95.256-254.809-47.628-379.833 13.098-33.34 33.34-67.87 59.535-98.828l301.247-354.828c7.144-7.144 14.288-11.907 25.005-11.907s17.86 4.763 25.005 11.907l302.437 354.828c26.195 30.958 47.628 64.298 59.535 98.828 47.628 125.023 29.767 267.907-47.628 379.833zM512.595 359.888c-102.4 0-186.94 84.54-186.94 186.94s84.54 186.94 186.94 186.94c102.4 0 186.94-84.54 186.94-186.94s-83.349-186.94-186.94-186.94z" />
<glyph unicode="&#xe904;" d="M810.476 746.476c-6.035 6.035-6.035 15.819 0 21.854s15.819 6.035 21.854 0c6.035-6.035 6.035-15.819 0-21.854-6.037-6.035-15.819-6.035-21.854 0z" />
<glyph unicode="&#xe905;" d="M191.671 127.671c-6.035 6.035-6.035 15.819 0 21.854s15.819 6.035 21.854 0c6.035-6.035 6.035-15.819 0-21.854-6.037-6.035-15.819-6.035-21.854 0z" />
<glyph unicode="&#xe906;" d="M213.524 746.476c-6.035-6.035-15.819-6.035-21.854 0s-6.035 15.819 0 21.854c6.035 6.035 15.819 6.035 21.854 0 6.035-6.037 6.035-15.819 0-21.854z" />
<glyph unicode="&#xe907;" d="M832.329 127.671c-6.035-6.035-15.819-6.035-21.854 0s-6.035 15.819 0 21.854c6.035 6.035 15.819 6.035 21.854 0 6.035-6.037 6.035-15.819 0-21.854z" />
<glyph unicode="&#xe908;" d="M522.926 437.074c-6.035-6.035-15.819-6.035-21.854 0s-6.035 15.819 0 21.854c6.035 6.035 15.819 6.035 21.854 0 6.035-6.037 6.035-15.819 0-21.854z" />
<glyph unicode="&#xe909;" d="M587.438 793.648l-66.517-150.899c-3.964-6.867-13.879-6.867-17.843 0l-87.12 150.899c-42.687 73.934 10.671 166.352 96.042 166.352s118.125-92.418 75.438-166.352z" />
<glyph unicode="&#xe90a;" d="M415.956 102.35l87.12 150.899c3.964 6.867 13.879 6.867 17.843 0l66.517-150.899c42.689-73.932 9.935-166.35-75.436-166.35s-138.728 92.418-96.044 166.35z" />
<glyph unicode="&#xe90b;" d="M996.63 448c-24.082 113.075-113.598 106.85-113.608 106.848-8.586-2.462-17.095-6.027-25.371-10.807l-150.899-87.12c-6.867-3.964-6.867-13.879 0-17.843l150.899-87.12c8.276-4.778 16.788-8.344 25.371-10.807 0.037-0.002 137.688-6.218 113.608 106.848z" />
<glyph unicode="&#xe90c;" d="M512 960c-10.528 0-20.567-1.411-30.001-4.014 67.067-18.504 103.465-97.521 66.043-162.338l-66.043-114.389 21.078-36.51c3.964-6.867 13.879-6.867 17.843 0l87.12 150.899c42.689 73.934-10.669 166.352-96.040 166.352z" />
<glyph unicode="&#xe90d;" d="M512-64c-10.528 0-20.567 1.411-30.001 4.014 67.067 18.504 103.465 97.521 66.043 162.338l-66.043 114.389 21.078 36.508c3.964 6.867 13.879 6.867 17.843 0l87.12-150.899c42.689-73.932-10.669-166.35-96.040-166.35z" />
<glyph unicode="&#xe90e;" d="M166.35 544.042l150.899-87.12c6.867-3.964 6.867-13.879 0-17.843l-150.899-87.12c-73.932-42.687-166.35 10.671-166.35 96.042s92.418 138.728 166.35 96.042z" />
<glyph unicode="&#xe90f;" d="M883.020 554.848c45.011-12.793 80.978-53.59 80.978-106.848s-35.97-94.056-80.978-106.848c68.099-19.522 140.98 31.035 140.98 106.848s-72.881 126.37-140.98 106.848z" />
<glyph unicode="&#xe910;" d="M699.895 536.144l-120.886-32.391c-7.66-2.052-14.67 4.957-12.618 12.618l32.391 120.886c4.283 15.986 12.655 29.204 23.488 39.217 0 0 56.186 35.041 105.717-38.871 49.533-73.915-28.093-101.458-28.093-101.458z" />
<glyph unicode="&#xe911;" d="M425.215 637.255l32.391-120.886c2.052-7.66-4.957-14.67-12.618-12.618l-120.886 32.391c-61.386 16.448-81.947 93.182-37.008 138.12s121.673 24.378 138.12-37.008z" />
<glyph unicode="&#xe912;" d="M425.215 258.745l32.391 120.886c2.052 7.66-4.957 14.67-12.618 12.618l-120.886-32.391c-61.386-16.448-81.947-93.182-37.008-138.12 44.939-44.941 121.673-24.378 138.12 37.008z" />
<glyph unicode="&#xe913;" d="M699.895 536.159l-6.711-1.799c32.772 30.077 37.499 84.329 2.512 119.314-20.719 20.719-48.192 27.485-73.405 22.775 30.767 28.441 81.374 31.066 114.612-2.172 44.939-44.936 24.378-121.669-37.008-138.118z" />
<glyph unicode="&#xe914;" d="M699.895 359.856l-120.886 32.391c-7.66 2.052-14.67-4.957-12.618-12.618l32.391-120.886c4.283-15.986 12.655-29.204 23.488-39.217 0 0 56.186-35.041 105.717 38.871 49.533 73.915-28.093 101.458-28.093 101.458z" />
<glyph unicode="&#xe915;" d="M699.895 359.839l-6.711 1.799c32.772-30.077 37.499-84.327 2.512-119.314-20.719-20.719-48.192-27.485-73.405-22.775 30.767-28.441 81.374-31.066 114.612 2.172 44.939 44.939 24.378 121.671-37.008 138.118z" />
<glyph unicode="&#xe916;" glyph-name="water-drop" d="M717.72 725.276c-92.483 124.749-186.291 225.676-187.234 226.68-4.783 5.13-11.478 8.044-18.488 8.044-7.013 0-13.71-2.912-18.491-8.044-0.938-1.004-94.748-101.931-187.231-226.68-126.332-170.402-190.386-302.68-190.386-393.153 0-218.418 177.693-396.123 396.108-396.123 218.418 0 396.111 177.7 396.111 396.123 0 90.473-64.057 222.749-190.389 393.153zM551.558 64.187c-20.763-4.907-42.169-7.397-63.612-7.397-152.429 0-276.44 124.016-276.44 276.448 0 21.014 6.469 59.089 37.289 121.131 3.097 6.237 10.229 9.331 16.905 7.352 6.672-1.985 10.947-8.487 10.13-15.399-0.708-5.969-1.064-11.589-1.064-16.703 0-163.389 116.207-305.319 276.316-337.461 6.591-1.327 11.376-7.066 11.49-13.791 0.119-6.732-4.467-12.63-11.015-14.18z" />
<glyph unicode="&#xe917;" glyph-name="search" d="M991.284 27.298l-243.714 253.474c62.663 74.491 96.997 168.216 96.997 265.788 0 227.967-185.473 413.44-413.44 413.44s-413.44-185.473-413.44-413.44 185.473-413.44 413.44-413.44c85.582 0 167.137 25.813 236.865 74.815l245.565-255.398c10.264-10.66 24.069-16.538 38.863-16.538 14.003 0 27.287 5.339 37.371 15.046 21.427 20.618 22.11 54.808 1.492 76.253zM431.128 852.146c168.504 0 305.586-137.082 305.586-305.586s-137.082-305.586-305.586-305.586-305.586 137.082-305.586 305.586 137.082 305.586 305.586 305.586z" />
<glyph unicode="&#xe918;" glyph-name="shopping-bag" d="M904 720h-121.892c-15.89 134.956-130.954 240-270.108 240s-254.218-105.044-270.108-240h-121.892c-22.092 0-40-17.908-40-40v-704c0-22.092 17.908-40 40-40h784c22.092 0 40 17.908 40 40v704c0 22.092-17.908 40-40 40zM512 880c94.968 0 174.038-69.31 189.318-160h-378.636c15.28 90.69 94.35 160 189.318 160zM864 16h-704v624h80v-120c0-22.092 17.908-40 40-40s40 17.908 40 40v120h384v-120c0-22.092 17.908-40 40-40s40 17.908 40 40v120h80z" />
<glyph unicode="&#xe919;" glyph-name="play" d="M839.851 543.087l-568.792 389.393c-26.268 17.995-52.735 27.52-74.734 27.52-42.531 0-68.84-34.134-68.84-91.27v-841.592c0-57.070 26.276-91.138 68.708-91.138 22.032 0 48.076 9.532 74.402 27.578l569.057 389.385c36.596 25.083 56.863 58.835 56.863 95.083 0.008 36.223-20.026 69.968-56.664 95.042z" />
<glyph unicode="&#xe91a;" glyph-name="water-bottle" d="M757.912 524.245c-7.82 7.82-20.48 7.82-28.3 0-7.8-7.8-7.8-20.46 0-28.28 7.82-7.82 20.48-7.82 28.3 0 7.802 7.82 7.802 20.48 0 28.28zM1006.316 829.223l-113.143 113.141c-23.448 23.444-61.394 23.452-84.846 0l-36.28-36.28c-14.876-14.876-20.57-35.822-16.082-55.726l-164.023-28.942c-36.58-6.474-69.77-23.764-95.969-49.988l-35.064-35.044c-23.092-23.092-32.502-54.762-28.242-84.848-30.31 4.28-61.716-5.13-84.876-28.288-23.126-23.112-32.582-54.492-28.304-84.866-30.298 4.262-61.696-5.136-84.838-28.278-22.468-22.468-32.702-53.578-28.282-84.898-30.090 4.264-61.762-5.146-84.858-28.24l-80.582-80.562c-54.574-54.578-54.576-143.401 0.002-198.005l141.423-141.421c54.594-54.568 143.411-54.582 198.003 0.004l80.558 80.58c23.096 23.096 32.506 54.774 28.238 84.866 31.182-4.398 62.346 5.718 84.9 28.272 23.088 23.088 32.496 54.758 28.234 84.85 31.016-4.38 62.228 5.588 84.908 28.29 23.090 23.090 32.498 54.756 28.238 84.84 31.31-4.42 62.428 5.806 84.908 28.286l35.030 35.048c26.236 26.212 43.524 59.404 49.998 95.993l28.94 164.009c19.866-4.478 40.82 1.174 55.728 16.082l36.28 36.28c23.45 23.448 23.454 61.394 0.002 84.844zM432.629 85.849l-80.558-80.578c-38.984-38.986-102.435-38.984-141.435 0l-141.417 141.413c-38.986 39.004-38.986 102.453-0.004 141.437l80.582 80.562c23.394 23.396 61.46 23.396 84.856 0l197.979-197.977c23.396-23.396 23.396-61.462-0.002-84.858zM545.767 198.988c-23.384-23.384-61.372-23.482-84.854 0l-197.979 197.979c-23.442 23.444-23.448 61.406 0.002 84.856 23.426 23.428 61.362 23.436 84.838 0.014 0.006-0.006 0.010-0.010 0.016-0.016l197.973-197.971c0 0 0 0 0-0.002 23.39-23.406 23.394-61.472 0.004-84.86zM658.902 312.12c-23.422-23.45-61.414-23.454-84.848 0.008l-197.985 197.983c-23.456 23.44-23.468 61.396 0.006 84.852 23.458 23.458 61.374 23.462 84.836 0l197.999-197.999c23.392-23.388 23.392-61.446-0.008-84.844zM845.977 534.966c-5.036-28.458-18.48-54.274-38.892-74.666l-35.036-35.054c-23.394-23.396-61.46-23.396-84.856 0l-197.999 197.999c-23.394 23.396-23.394 61.46-0.004 84.852l35.070 35.050c20.38 20.4 46.198 33.844 74.644 38.88l180.507 31.85 98.413-98.415-31.848-180.495zM978.030 772.663l-36.28-36.28c-7.816-7.814-20.458-7.816-28.276 0l-113.139 113.141c-7.814 7.818-7.816 20.458 0.002 28.276l36.28 36.28c7.818 7.816 20.46 7.814 28.276 0l113.137-113.141c7.802-7.804 7.83-20.442 0-28.276zM1010.824 202.44l-89.119 174.597c-3.418 6.694-10.298 10.908-17.814 10.908s-14.396-4.214-17.814-10.908l-89.113-174.589c-40.504-79.242 17.214-174.501 106.927-174.501 89.697 0 147.435 95.243 106.933 174.493zM903.891 67.947c-59.868 0-98.255 63.58-71.304 116.307l71.304 139.699 71.31-139.707c26.918-52.67-11.384-116.299-71.31-116.299zM701.338 580.826l-96.559 96.559c-7.812 7.81-20.472 7.81-28.286 0-7.81-7.81-7.81-20.474 0-28.284l96.559-96.559c7.812-7.81 20.472-7.81 28.286 0 7.81 7.812 7.81 20.474 0 28.284z" />
<glyph unicode="&#xe91b;" glyph-name="water-dispenser" d="M732.21 447.192h-15.392l16.808 8.412c18.658 8.542 30.686 27.254 30.686 47.81v22.43c0 19.902-11.11 37.258-27.454 46.184v61.638c16.344 8.926 27.454 26.282 27.454 46.186v53.314c0 19.902-11.11 37.258-27.454 46.184v61.638c16.344 8.926 27.454 26.282 27.454 46.184v52.828c0 11.046-8.956 20-20 20h-464.624c-11.044 0-20-8.954-20-20v-52.828c0-19.902 11.11-37.258 27.454-46.184v-61.638c-16.344-8.926-27.454-26.282-27.454-46.184v-53.314c0-19.904 11.11-37.258 27.454-46.186v-61.638c-16.344-8.926-27.454-26.282-27.454-46.184v-22.43c0-20.556 12.028-39.268 30.686-47.81l16.808-8.412h-15.392c-39.45 0-71.544-32.094-71.544-71.544v-419.648c0-11.046 8.956-20 20-20h543.512c11.044 0 20 8.954 20 20v419.646c-0.002 39.45-32.098 71.546-71.548 71.546zM307.928 491.548c-0.262 0.13-0.528 0.256-0.794 0.376-4.524 2.020-7.446 6.53-7.446 11.49v22.43c0 6.938 5.634 12.582 12.562 12.582 11.044 0 20 8.954 20 20 0 5.13-1.934 9.812-5.11 13.352v62.142c3.176 3.54 5.11 8.22 5.11 13.352 0 11.046-8.956 20-20 20-6.928 0-12.562 5.644-12.562 12.582v53.314c0 6.938 5.634 12.582 12.562 12.582 11.044 0 20 8.954 20 20 0 5.13-1.934 9.812-5.11 13.352v62.138c3.176 3.54 5.11 8.22 5.11 13.352 0 11.046-8.956 20-20 20-6.928 0-12.562 5.644-12.562 12.582v32.826h424.626v-32.828c0-6.938-5.634-12.582-12.562-12.582-11.044 0-20-8.954-20-20 0-5.13 1.934-9.812 5.11-13.352v-62.142c-3.176-3.54-5.11-8.22-5.11-13.352 0-11.046 8.956-20 20-20 6.928 0 12.562-5.644 12.562-12.582v-53.314c0-6.938-5.634-12.582-12.562-12.582-11.044 0-20-8.954-20-20 0-5.13 1.934-9.812 5.11-13.352v-62.142c-3.176-3.54-5.11-8.22-5.11-13.352 0-11.046 8.956-20 20-20 6.928 0 12.562-5.644 12.562-12.582v-22.43c0-4.96-2.922-9.47-7.446-11.49-0.268-0.12-0.534-0.246-0.794-0.376l-88.634-44.356h-230.878zM367.458-24v328.958h289.086v-328.958zM763.756-24h-67.212v348.958c0 11.046-8.956 20-20 20h-329.086c-11.044 0-20-8.954-20-20v-348.958h-67.212v399.646c0 17.394 14.15 31.544 31.544 31.544h440.422c17.394 0 31.544-14.152 31.544-31.544zM473.528 258.512h-32.398c-11.044 0-20-8.954-20-20 0-9.746 6.972-17.862 16.2-19.638v-21.644c0-11.046 8.956-20 20-20s20 8.954 20 20v21.644c9.228 1.776 16.2 9.892 16.2 19.638-0.002 11.046-8.958 20-20.002 20zM582.872 258.512h-32.398c-11.044 0-20-8.954-20-20 0-9.746 6.972-17.862 16.2-19.638v-21.644c0-11.046 8.956-20 20-20s20 8.954 20 20v21.644c9.228 1.776 16.2 9.892 16.2 19.638-0.002 11.046-8.958 20-20.002 20z" />
<glyph unicode="&#xe91c;" glyph-name="tank" d="M184.764 733.047h316.68v-31.738h-316.68v31.738zM248.099 648.597h253.342v-31.738h-253.342v31.738zM374.772 564.15h126.672v-31.738h-126.672v31.738zM973.929 374.143h-76.765c19.519 11.024 37.68 24.786 53.996 41.101 46.971 46.973 72.84 109.214 72.84 175.262 0 136.803-111.298 248.101-248.101 248.101h-353.589v63.333h-158.411v-63.335h-15.799c-66.048 0-128.289-25.869-175.262-72.84-46.969-46.971-72.838-109.212-72.838-175.26 0-92.776 51.196-173.806 126.812-216.361h-76.741c-22.526 0-39.514-13.176-39.514-30.647v-44.336c0-17.471 16.989-30.647 39.514-30.647h76.602v-242.716h-89.691v-31.738h950.037v31.738h-89.691v242.714h76.602c22.526 0 39.514 13.176 39.514 30.647v44.336c0 17.471-16.989 30.647-39.514 30.647zM749.543 806.868h26.356c119.303 0 216.363-97.060 216.363-216.363 0-57.569-22.568-111.84-63.545-152.818-40.974-40.976-95.249-63.542-152.818-63.542h-26.356v432.724zM601.76 806.868h31.597v-195.251h31.738v195.251h52.709v-432.724h-116.044v432.724zM295.637 870.201h94.934v-31.597h-94.934v31.597zM31.738 590.506c0 57.569 22.568 111.842 63.542 152.818 40.976 40.976 95.249 63.545 152.818 63.545h321.923v-432.724h-321.923c-119.3-0.002-216.361 97.058-216.361 216.361zM190.007 25.796h-31.597v242.716h31.597v-242.716zM802.252 25.796h-580.506v242.716h580.506v-242.716zM865.589 25.796h-31.599v242.716h31.599v-242.716zM973.929 300.251h-923.859c-3.618 0-6.32 0.846-7.776 1.576v39c1.456 0.73 4.158 1.576 7.776 1.576h923.859c3.618 0 6.318-0.846 7.776-1.576v-39c-1.456-0.73-4.158-1.576-7.776-1.576z" />
<glyph unicode="&#xe91d;" glyph-name="right-arrow" d="M1002.789 481.239l-950.834 438.846c-15.14 6.875-33.206 2.779-43.738-10.24-10.605-13.019-10.971-31.524-0.878-44.909l312.678-416.904-312.678-416.904c-10.093-13.385-9.728-31.963 0.805-44.909 7.095-8.85 17.7-13.604 28.452-13.604 5.193 0 10.386 1.097 15.286 3.364l950.834 438.846c13.019 5.998 21.284 18.944 21.284 33.206s-8.265 27.208-21.211 33.206z" />
<glyph unicode="&#xe91e;" glyph-name="water-drop-1" d="M399.511 78.763c-98.768 30.711-165.128 120.905-165.128 224.439 0 50.606 15.843 98.82 45.818 139.43 0.684 0.926 1.301 1.939 1.817 2.97 4.953 9.903 0.93 21.932-8.975 26.885-8.965 4.49-19.689 1.606-25.315-6.322-34.964-47.498-53.445-103.843-53.445-162.963 0-59.87 18.905-116.794 54.669-164.613 34.569-46.221 83.809-81.068 138.654-98.12 1.983-0.618 3.988-0.91 5.959-0.91 8.548 0 16.47 5.512 19.141 14.104 3.288 10.575-2.619 21.812-13.194 25.101zM913.494 491.438c0 38.168-11.895 74.532-34.404 105.198l-126.928 188.426c-3.728 5.532-9.96 8.849-16.631 8.849s-12.903-3.317-16.631-8.849l-53.485-79.398-165.373 245.487c-3.726 5.532-9.96 8.849-16.629 8.849s-12.903-3.317-16.629-8.849l-283.882-421.409c-47.366-64.367-72.396-140.716-72.396-220.836 0-205.621 167.286-372.906 372.906-372.906s372.906 167.286 372.906 372.906c0 16.414-1.097 32.858-3.228 49.046 37.011 32.636 60.403 80.377 60.403 133.485zM735.531 737.969l110.293-163.729c0.221-0.341 0.453-0.676 0.696-1.005 17.579-23.807 26.871-52.092 26.871-81.796 0-76.015-61.843-137.858-137.86-137.858-76.015 0-137.858 61.843-137.858 137.858 0 29.704 9.292 57.989 26.871 81.796 0.233 0.315 0.455 0.636 0.67 0.966l56.792 84.307c0.104 0.154 0.213 0.307 0.313 0.465zM816.214 308.906c0-183.51-149.296-332.803-332.803-332.803-183.51 0-332.803 149.294-332.803 332.803 0 71.672 22.438 139.958 64.891 197.47 0.243 0.327 0.477 0.67 0.704 1.021l267.211 396.664 157.828-234.286-49.269-73.14c-22.508-30.665-34.402-67.030-34.402-105.196 0-98.128 79.833-177.961 177.961-177.961 28.694 0 55.817 6.836 79.843 18.949 0.547-7.82 0.84-15.672 0.84-23.518zM664.831 496.328c0 9.715 1.979 19.091 5.881 27.868 4.5 10.12-0.058 21.97-10.176 26.468-10.12 4.494-21.968-0.056-26.468-10.176-6.198-13.94-9.34-28.796-9.34-44.16 0-36.392 18.078-70.218 48.358-90.479 3.425-2.292 7.299-3.387 11.133-3.387 6.469 0 12.817 3.124 16.683 8.901 6.158 9.206 3.689 21.66-5.514 27.817-19.133 12.803-30.557 34.166-30.557 57.147zM473.904 50.984c-4.909 12.901-23.224 16.581-32.704 6.497-11.287-10.938-5.211-31.022 10.266-33.827 15.345-3.363 28.722 12.925 22.438 27.33zM724.967 387.571c12.929-8.955 31.445 0.946 31.18 16.663 0.291 15.718-18.261 25.64-31.18 16.683-11.71-7.339-11.756-26.031 0-33.346z" />
<glyph unicode="&#xe91f;" glyph-name="write-message" d="M196.882 549.32h61.738c11.044 0 20 8.954 20 20s-8.956 20-20 20h-61.738c-11.044 0-20-8.954-20-20s8.956-20 20-20zM635.9 569.32c0 11.046-8.956 20-20 20h-241.966c-11.044 0-20-8.954-20-20s8.956-20 20-20h241.966c11.046 0 20 8.954 20 20zM575.182 472.374c0 11.046-8.956 20-20 20h-77.5c-11.044 0-20-8.954-20-20s8.956-20 20-20h77.5c11.044 0 20 8.954 20 20zM196.882 452.374h184.706c11.044 0 20 8.954 20 20s-8.956 20-20 20h-184.706c-11.044 0-20-8.954-20-20s8.956-20 20-20zM538.672 375.426c0 11.046-8.956 20-20 20h-321.79c-11.044 0-20-8.954-20-20s8.956-20 20-20h321.79c11.044 0 20 8.954 20 20zM357.608 298.478c-11.044 0-20-8.954-20-20s8.956-20 20-20h136.29c11.044 0 20 8.954 20 20s-8.956 20-20 20zM196.882 298.478c-11.044 0-20-8.954-20-20s8.956-20 20-20h83.848c11.044 0 20 8.954 20 20s-8.956 20-20 20zM998.030 815.682l-42.676 28.168c-26.576 17.574-62.552 10.248-80.22-16.378l-105.582-159.928c-36.852 18.072-77.502 27.568-118.672 27.568h-100.062c-11.044 0-20-8.954-20-20s8.956-20 20-20h100.062c33.34 0 66.28-7.32 96.42-21.274l-127.284-192.798c-1.17-1.772-2.688-5.486-3.008-7.564l-27.496-156.818c-1.376-7.844 2.034-15.756 8.68-20.144 3.342-2.206 7.18-3.31 11.020-3.31 3.796 0 7.596 1.080 10.914 3.24l133.456 86.912c2.258 1.474 4.292 3.492 5.776 5.74l106.042 160.604c10.956-27.204 16.686-56.348 16.686-85.802 0-127.492-103.718-231.214-231.208-231.214h-178.638c-3.916 0-7.746-1.15-11.016-3.306l-144.626-95.438-26.292 84.674c-2.598 8.368-10.338 14.070-19.1 14.070-127.488 0.002-231.206 103.724-231.206 231.216s103.718 231.212 231.208 231.212h100.006c11.044 0 20 8.954 20 20s-8.956 20-20 20h-100.006c-149.546 0-271.208-121.666-271.208-271.212 0-144.564 113.688-263.074 256.35-270.812l29.944-96.434c1.864-6.006 6.448-10.786 12.37-12.902 2.188-0.782 4.462-1.166 6.728-1.166 3.87 0 7.708 1.122 11.018 3.306l161.836 106.794h172.634c149.544 0 271.208 121.666 271.208 271.214 0 43.528-10.634 86.476-30.792 125.018l123.196 186.58c17.52 26.624 10.14 62.59-16.462 80.184zM636.858 315.078l14.284 81.462 55.042-36.314zM736.992 387.822l-72.572 47.878 198.31 300.384 72.58-47.908zM981.094 757.512l-23.742-35.958-72.582 47.91 23.722 35.93c5.464 8.236 16.594 10.518 24.814 5.082l42.676-28.166c8.23-5.446 10.518-16.582 5.112-24.798zM461.016 655.112h0.114c11.044 0 19.944 8.954 19.944 20s-9.012 20-20.056 20-20-8.954-20-20 8.952-20 19.998-20z" />
<glyph unicode="&#xe920;" glyph-name="shield" d="M930.608 816.142c-1.040 11.050-9.98 19.692-21.056 20.356-128.732 7.734-255.18 47.196-386.571 120.642-6.824 3.812-15.14 3.812-21.964 0-131.39-73.446-257.837-112.908-386.569-120.64-11.078-0.664-20.016-9.306-21.056-20.356-13.772-146.286-19.354-294.947-16.596-442.007 3.196-124.348 79.12-237.068 225.776-335.099 54.462-35.93 106.156-61.6 139.936-76.808 19.44-8.75 35.094-15.024 44.802-18.748 19.1-7.324 20.63-7.37 23.98-7.476 0.234-0.006 1.18-0.006 1.418 0 3.348 0.106 4.878 0.152 23.98 7.476 9.706 3.722 25.362 9.994 44.8 18.748 33.778 15.208 85.474 40.876 140.048 76.884 146.544 97.954 222.468 210.674 225.668 335.177 2.76 146.908-2.824 295.567-16.594 441.851zM902.206 375.293c-2.8-108.884-72.002-209.402-205.568-298.683-84.62-55.828-162.376-86.166-184.638-94.28-22.26 8.114-100.008 38.444-184.524 94.204-133.678 89.358-202.882 189.876-205.68 298.601-2.606 138.878 2.33 279.341 14.672 417.819 125.34 10.468 248.524 49.456 375.533 118.828 127.012-69.372 250.196-108.358 375.533-118.826 12.338-138.478 17.272-278.937 14.67-417.663zM511.999 779.956c-183.042 0-331.957-148.916-331.957-331.957s148.918-331.957 331.957-331.957 331.957 148.916 331.957 331.957-148.916 331.957-331.957 331.957zM511.999 161.052c-158.224 0-286.947 128.724-286.947 286.945s128.726 286.947 286.947 286.947 286.945-128.724 286.945-286.947-128.722-286.945-286.945-286.945zM721.303 378.297c-11.324 5.124-24.66 0.104-29.784-11.218-31.904-70.47-102.37-116.004-179.52-116.004-12.43 0-22.506-10.076-22.506-22.506s10.076-22.506 22.506-22.506c94.784 0 181.346 55.914 220.524 142.448 5.126 11.322 0.106 24.658-11.22 29.786zM708.917 446.219c-0.104-12.43 9.886-22.592 22.316-22.692 0.066 0 0.128 0 0.194 0 12.34 0 22.398 9.952 22.502 22.316l0.010 2.158c0 12.43-10.076 22.506-22.506 22.506s-22.506-10.076-22.506-22.506l-0.010-1.782zM513.003 351.815l138.034 138.034c8.788 8.788 8.79 23.040 0 31.828-8.788 8.788-23.040 8.788-31.828 0l-122.122-122.12-38.288 38.286c-8.788 8.788-23.040 8.788-31.828 0s-8.788-23.040 0-31.828l54.2-54.2c4.396-4.396 10.154-6.592 15.914-6.592 5.758 0 11.524 2.198 15.918 6.592z" />
<glyph unicode="&#xe921;" glyph-name="medal" d="M671.984 638.342c-2.354 7.24-8.616 12.514-16.148 13.608l-87.007 12.62-38.93 78.828c-3.372 6.824-10.322 11.144-17.932 11.144h-0.004c-7.614-0.002-14.564-4.326-17.932-11.154l-38.886-78.848-87.001-12.666c-7.534-1.096-13.79-6.376-16.14-13.616s-0.386-15.188 5.066-20.5l62.972-61.35-14.838-86.655c-1.286-7.504 1.802-15.086 7.962-19.56 3.484-2.53 7.608-3.816 11.752-3.816 3.184 0 6.382 0.76 9.31 2.3l77.806 40.932 77.828-40.89c6.738-3.542 14.904-2.95 21.062 1.528 6.158 4.476 9.24 12.060 7.952 19.562l-14.884 86.647 62.94 61.382c5.446 5.316 7.404 13.264 5.050 20.504zM568.535 577.75c-4.712-4.596-6.862-11.216-5.748-17.704l9.804-57.070-51.262 26.932c-5.826 3.062-12.788 3.060-18.614-0.004l-51.248-26.96 9.774 57.076c1.112 6.488-1.042 13.108-5.756 17.702l-41.476 40.408 57.302 8.342c6.514 0.948 12.144 5.042 15.056 10.944l25.612 51.932 25.642-51.92c2.916-5.902 8.548-9.992 15.062-10.936l57.306-8.312-41.454-40.43zM961.482 81.261l-165.313 287.542c49.922 62.316 79.832 141.323 79.832 227.195 0 200.711-163.291 364.002-364.002 364.002s-364.002-163.291-364.002-364.002c0-85.873 29.908-164.879 79.832-227.195l-165.313-287.542c-3.796-6.604-3.512-14.792 0.734-21.118 4.246-6.324 11.724-9.688 19.266-8.674l129.027 17.326 49.508-120.403c2.9-7.050 9.556-11.84 17.164-12.348 0.448-0.030 0.894-0.044 1.338-0.044 7.11 0 13.728 3.786 17.316 10l166.887 289.056c0.026 0.044 0.044 0.090 0.070 0.136 15.768-2.094 31.844-3.194 48.176-3.194s32.408 1.1 48.176 3.194c0.026-0.044 0.044-0.090 0.070-0.136l166.887-289.056c3.588-6.214 10.208-10 17.316-10 0.444 0 0.89 0.014 1.338 0.044 7.608 0.508 14.264 5.298 17.164 12.348l49.51 120.403 129.027-17.326c7.558-1.014 15.020 2.35 19.266 8.674 4.234 6.326 4.52 14.514 0.724 21.118zM282.57 1.236l-36.040 87.645 32.342 52.778c5.772 9.418 2.816 21.732-6.602 27.502s-21.732 2.816-27.502-6.602l-32.682-53.332-94.661-12.71 138.553 240.993c45.384-44.954 102.497-78.080 166.289-94.313l-139.697-241.961zM511.997 271.996c-178.655 0-324.002 145.347-324.002 324.002s145.347 324.002 324.002 324.002 324.002-145.347 324.002-324.002-145.347-324.002-324.002-324.002zM811.911 109.227l-32.682 53.332c-5.77 9.418-18.084 12.376-27.502 6.602-9.418-5.772-12.374-18.084-6.602-27.502l32.342-52.778-36.040-87.645-139.697 241.961c63.792 16.232 120.907 49.358 166.289 94.313l138.553-240.993-94.661 12.71zM511.997 855.999c-44.632 0-88.667-11.504-127.345-33.272-9.626-5.416-13.038-17.612-7.622-27.238s17.612-13.042 27.238-7.622c32.702 18.404 69.954 28.132 107.729 28.132 121.309 0 220.001-98.693 220.001-220.001 0-33.148-7.182-64.998-21.346-94.665-4.758-9.968-0.536-21.906 9.432-26.666 2.782-1.328 5.714-1.956 8.604-1.956 7.464 0 14.63 4.202 18.062 11.388 16.752 35.090 25.248 72.738 25.248 111.899 0 143.365-116.635 260.002-260.002 260.002zM698.104 443.153c-7.926 7.692-20.588 7.502-28.28-0.424l-0.444-0.456c-7.716-7.902-7.566-20.566 0.336-28.282 3.89-3.798 8.932-5.69 13.97-5.69 5.198 0 10.394 2.014 14.312 6.028l0.528 0.542c7.694 7.926 7.504 20.588-0.422 28.282zM645.176 395.307c-5.33 9.674-17.494 13.196-27.168 7.864-32.262-17.778-68.92-27.174-106.011-27.174-121.309 0-220.001 98.693-220.001 220.001 0 31.778 6.622 62.426 19.68 91.093 4.58 10.052 0.142 21.912-9.91 26.492-10.052 4.578-21.912 0.142-26.492-9.91-15.448-33.908-23.28-70.134-23.28-107.675 0-143.365 116.637-260.002 260.002-260.002 43.822 0 87.157 11.114 125.317 32.142 9.674 5.332 13.196 17.494 7.864 27.168zM350 774.201c-8.082 7.53-20.738 7.078-28.266-1.002l-0.444-0.478c-7.5-8.108-7.010-20.762 1.098-28.262 3.846-3.56 8.716-5.32 13.576-5.32 5.38 0 10.744 2.158 14.686 6.418l0.352 0.378c7.528 8.082 7.080 20.738-1.002 28.266z" />
<glyph unicode="&#xe922;" glyph-name="hand" horiz-adv-x="1022" d="M471.586 265.468c7.805 7.82 7.805 20.477 0 28.297-7.813 7.797-20.469 7.797-28.289 0-7.797-7.82-7.797-20.477 0-28.297 7.82-7.797 20.477-7.797 28.289 0zM376.899 740.062c0-121.273 98.664-219.945 219.938-219.945s219.938 98.672 219.938 219.945-98.664 219.938-219.938 219.938-219.938-98.664-219.938-219.938zM776.789 740.062c0-99.227-80.727-179.953-179.953-179.953s-179.953 80.727-179.953 179.953c0 99.219 80.727 179.945 179.953 179.945s179.953-80.727 179.953-179.945zM231.305-58.086c7.75-7.813 20.367-7.898 28.219-0.164l96.938 95.5c16.469 16.469 21.477 40.852 14.234 62.047l20.852 20.109c11.227 10.844 26.008 16.82 41.633 16.82h265.805c47.156 0 91.727 18.109 125.516 50.992 1.391 1.352-10.555-12.719 181.336 216.625 28.461 33.672 24.203 84.234-9.5 112.727-33.492 28.227-83.664 24.172-112.203-8.922l-117.984-121.266c-14.898 18.336-37.617 29.766-62.164 29.766h-222.961c-31.727 13.273-65.391 19.992-100.125 19.992-96.281 0-180.352-44.469-225.469-127.844-19.008 3.602-39.055-2.148-53.477-16.57l-95.117-95.398c-7.766-7.789-7.781-20.391-0.031-28.203zM380.891 396.156c30.625 0 60.234-6.164 88.023-18.32 2.531-1.109 5.258-1.68 8.016-1.68h227.055c21.68 0 39.992-17.68 39.992-39.984 0-22.055-17.938-39.992-39.992-39.992h-163.133c-11.039 0-19.992-8.953-19.992-19.992 0-11.047 8.953-19.992 19.992-19.992h163.133c44.102 0 79.977 35.875 79.977 79.977 0 3.516-0.25 7-0.703 10.453 114.133 117.32 130.227 133.805 130.914 134.625 14.25 16.82 39.547 18.953 56.375 4.766 16.844-14.242 18.977-39.523 4.688-56.438l-179.336-214.391c-26.188-25.141-60.57-38.977-96.914-38.977h-265.805c-26.047 0-50.703-9.961-69.406-28.031l-16.992-16.398-156.641 156.633c36.609 68.68 105.305 107.742 190.75 107.742zM130.25 263.468c6.594 6.594 16.719 7.781 24.758 2.813 3.461-2.109-6.477 6.938 173.18-172.469 7.992-7.992 7.563-20.727 0.109-28.18l-82.641-81.414-196.461 197.961zM572.844 860.023v-23.43c-23.273-8.25-39.992-30.477-39.992-56.547 0-33.070 26.906-59.984 59.984-59.984 11.023 0 19.992-8.969 19.992-19.992s-8.969-19.992-19.992-19.992c-8.539 0-17.766 5.367-25.961 15.125-7.109 8.453-19.719 9.539-28.172 2.438-8.453-7.109-9.547-19.719-2.438-28.172 10.688-12.711 23.258-21.57 36.578-26.039v-23.336c0-11.047 8.953-19.992 19.992-19.992s19.992 8.945 19.992 19.992v23.43c23.273 8.258 39.992 30.484 39.992 56.547 0 33.078-26.906 59.984-59.984 59.984-11.023 0-19.992 8.969-19.992 19.992s8.969 20 19.992 20c7.086 0 14.563-3.617 21.625-10.453 7.938-7.68 20.594-7.469 28.273 0.461 7.68 7.938 7.469 20.594-0.461 28.273-10.148 9.82-20.305 15.375-29.445 18.406v23.289c0 11.047-8.953 20-19.992 20s-19.992-8.953-19.992-20z" />
<glyph unicode="&#xe923;" glyph-name="truck" d="M1022.746 423.634l-86 231.334c-2.912 7.834-10.388 13.032-18.746 13.032h-228v124c0 11.044-8.954 20-20 20h-410c-11.046 0-20-8.956-20-20s8.954-20 20-20h390v-552h-377.226c-15.628 28.574-45.974 48-80.774 48s-65.146-19.426-80.774-48h-71.226v88h470c11.046 0 20 8.956 20 20s-8.954 20-20 20h-470v424h60c11.046 0 20 8.956 20 20s-8.954 20-20 20h-80c-11.046 0-20-8.956-20-20v-592c0-11.044 8.954-20 20-20h80.102c-0.058-1.328-0.102-2.658-0.102-4 0-50.728 41.272-92 92-92s92 41.272 92 92c0 1.342-0.044 2.672-0.102 4h476.204c-0.058-1.328-0.102-2.658-0.102-4 0-50.728 41.272-92 92-92s92 41.272 92 92c0 1.342-0.044 2.672-0.102 4h60.102c11.046 0 20 8.956 20 20v216.666c0 2.378-0.424 4.738-1.254 6.968zM192 124c-28.672 0-52 23.326-52 52 0 4.398 0.554 8.668 1.586 12.75 1.856 2.722 3.054 5.926 3.374 9.386 8.33 17.632 26.28 29.864 47.040 29.864 28.672 0 52-23.326 52-52s-23.328-52-52-52zM975.228 436.666h-201.56c-2.022 0-3.666 1.644-3.666 3.668v104c0 2.022 1.644 3.666 3.666 3.666h160.172l41.388-111.334zM852 124c-28.672 0-52 23.326-52 52s23.328 52 52 52 52-23.326 52-52-23.328-52-52-52zM932.774 220c-15.628 28.574-45.974 48-80.774 48s-65.146-19.426-80.774-48h-81.226v408h214.098l14.87-40h-145.3c-24.080 0-43.668-19.588-43.668-43.666v-104c0-24.078 19.588-43.668 43.666-43.668h210.334v-30h-22c-11.046 0-20-8.956-20-20s8.954-20 20-20h22v-106.666h-51.226zM180 772c5.26 0 10.42 2.14 14.14 5.862 3.72 3.718 5.86 8.878 5.86 14.138s-2.14 10.42-5.86 14.14-8.88 5.86-14.14 5.86c-5.26 0-10.42-2.138-14.14-5.86-3.72-3.72-5.86-8.88-5.86-14.14s2.14-10.42 5.86-14.138c3.72-3.722 8.88-5.862 14.14-5.862zM604.14 313.862c3.72 3.718 5.86 8.878 5.86 14.138s-2.14 10.42-5.86 14.14-8.88 5.86-14.14 5.86c-5.26 0-10.42-2.138-14.14-5.86-3.72-3.72-5.86-8.88-5.86-14.14s2.14-10.42 5.86-14.138c3.72-3.72 8.88-5.862 14.14-5.862s10.42 2.14 14.14 5.862zM750 366.666c-11.046 0-20-8.956-20-20v-8.666c0-11.044 8.954-20 20-20s20 8.956 20 20v8.666c0 11.044-8.954 20-20 20z" />
<glyph unicode="&#xe924;" glyph-name="order" d="M138.024 553.002h154.976c11.044 0 20 8.956 20 20s-8.956 20-20 20h-154.976c-11.044 0-20-8.956-20-20s8.954-20 20-20zM138.024 414.51h154.976c11.044 0 20 8.956 20 20s-8.956 20-20 20h-154.976c-11.044 0-20-8.956-20-20s8.954-20 20-20zM330.020 79.282c-4.194 10.058-16.024 14.996-26.12 10.818-10.066-4.166-14.974-16.066-10.8-26.12 4.18-10.070 16.022-14.982 26.1-10.82 10.060 4.154 15.004 16.070 10.82 26.122zM1018.634 388.762l-237.888 255.36 72.836 72.666c12.65 12.51 19.618 29.202 19.618 47 0 17.55-6.796 34.070-19.126 46.512-25.506 25.76-67.488 26.092-93.588 0.734-0.064-0.062-0.126-0.124-0.19-0.186l-99.862-99.622h-37.312v76.806c0 11.044-8.956 20-20 20h-105.906v16.338c0 11.044-8.956 20-20 20s-20-8.956-20-20v-16.338h-73.062v16.338c0 11.044-8.956 20-20 20s-20-8.956-20-20v-16.338h-73.064v16.338c0 11.044-8.956 20-20 20s-20-8.956-20-20v-16.338h-73.066v16.338c0 11.044-8.956 20-20 20s-20-8.956-20-20v-16.338h-98.024c-11.044 0-20-8.956-20-20v-716.4c0-11.044 8.956-20 20-20h204.144c11.044 0 20 8.956 20 20s-8.956 20-20 20h-184.144v676.4h78.024v-18.146c0-11.044 8.956-20 20-20s20 8.956 20 20v18.146h73.064v-18.146c0-11.044 8.956-20 20-20s20 8.956 20 20v18.146h73.064v-18.146c0-11.044 8.956-20 20-20s20 8.956 20 20v18.146h73.062v-18.146c0-11.044 8.956-20 20-20s20 8.956 20 20v18.146h85.906v-56.918c-35.924-1.46-70.232-16.63-95.704-41.96l-147.182-147.18c-8.894-8.894-7.242-24.128 3.28-30.938 16.572-10.718 35.148-17.648 54.558-20.442 6.47-0.932 13.032-1.404 19.646-1.404 0.032 0 0.062 0.002 0.092 0.002l-22.958-22.904c-1.666-1.664-2.988-3.6-3.966-5.69l-64.158-96.368c-5.782-8.684-8.142-18.598-7.278-28.21h-181.426c-11.044 0-20-8.956-20-20s8.956-20 20-20h225.246c8.656 0 17.386 2.886 24.514 7.73l97.518 66.262c1.154 0.756 2.268 1.648 3.244 2.62l45.23 45.124 49.346-49.238v-256.886h-183.016c-11.044 0-20-8.956-20-20s8.956-20 20-20h203.016c11.044 0 20 8.956 20 20v237.844c25.284-20.998 56.808-32.444 90.096-32.444h79.794c16.594 0 32.684-6.882 44.042-18.774l152.38-161.934c12.12-12.882 34.564-4.006 34.564 13.706v265.1c0.002 5.058-1.916 9.93-5.364 13.632zM515.704 640.868c19.372 19.372 45.9 30.362 73.296 30.362h31.334l-124.61-124.31c-11.53-11.070-22.444-21.918-37.21-28.762-21.788-10.098-47.102-11.71-70.008-4.484zM788.436 782.42c10.434 10.052 27.1 9.946 37.22-0.272 4.864-4.908 7.542-11.428 7.542-18.36 0-7.032-2.75-13.622-7.804-18.622l-209.020-208.532-10.072 10.074c-9.432 9.432-21.334 16.36-34.188 19.914zM365.302 316.834c-1.712-1.164-3.308-1.030-4.792 0.442-2.212 2.192-1.090 3.878-0.486 4.786l52.264 78.502 30.874-30.826zM474.438 395.058l-37.106 37.106 38.108 38.024c3.598-13.022 10.726-24.91 20.262-34.444l9.758-9.738zM984 160.466l-117.916 125.308c-18.97 19.864-45.604 31.256-73.072 31.256h-79.794c-27.018 0-52.424 10.498-71.534 29.558l-117.77 117.512c-17.002 12.75-13.204 41.016 0.006 54.432 14.842 14.444 39.58 14.414 54.096-0.106l95.684-95.684c7.698-7.694 20.584-7.696 28.286 0 7.81 7.81 7.81 20.474 0 28.286l-57.326 57.326 107.752 107.5 231.588-248.598z" />
<glyph unicode="&#xe925;" glyph-name="package" d="M965.694 711.492l-444.004 246.002c-6.028 3.342-13.352 3.342-19.38 0l-444.004-246.002c-6.36-3.524-10.306-10.22-10.306-17.49v-492.004c0-7.27 3.946-13.966 10.306-17.49l444.004-246.002c3.014-1.67 6.352-2.506 9.69-2.506s6.676 0.836 9.69 2.506l444.004 246.002c6.36 3.524 10.306 10.22 10.306 17.49v162.134c0 11.042-8.952 19.996-19.996 19.996s-19.996-8.954-19.996-19.996v-150.354l-404.012-223.846v446.288l404.014 223.846v-123.976c0-11.044 8.952-19.996 19.996-19.996s19.996 8.952 19.996 19.996v157.912c-0.002 7.27-3.948 13.966-10.308 17.49zM512 917.146l121.474-67.304-125.204-69.37c-9.66-5.35-13.152-17.522-7.8-27.18 3.652-6.59 10.474-10.31 17.508-10.31 3.278 0 6.602 0.808 9.672 2.51l147.080 81.49 62.29-34.512-402.742-223.144-62.29 34.512 107.786 59.72c9.66 5.352 13.152 17.522 7.8 27.18-5.35 9.662-17.524 13.15-27.18 7.8l-129.664-71.84-121.476 67.302 402.746 223.146zM314.994 534.292v-81.040l-63.726 35.014v81.334l63.726-35.308zM492.004-10.068l-404.014 223.846v446.286l123.286-68.308v-115.32c0-7.294 3.974-14.010 10.368-17.524l103.716-56.986c3.002-1.648 6.316-2.47 9.628-2.47 3.524 0 7.044 0.932 10.18 2.788 6.082 3.6 9.816 10.14 9.816 17.208v92.684l137.018-75.916v-446.288zM512 470.858l-136.466 75.61 402.746 223.144 136.466-75.61-402.746-223.144zM970.14 462.248c-3.72 3.718-8.88 5.858-14.136 5.858-5.258 0-10.418-2.14-14.136-5.858-3.72-3.718-5.858-8.878-5.858-14.136s2.14-10.418 5.858-14.134c3.72-3.718 8.878-5.86 14.136-5.86s10.418 2.14 14.136 5.86c3.72 3.718 5.858 8.876 5.858 14.134s-2.14 10.418-5.858 14.136zM458.224 736.182c-3.72 3.72-8.878 5.858-14.136 5.858-5.278 0-10.438-2.14-14.156-5.858s-5.858-8.878-5.858-14.136c0-5.258 2.14-10.418 5.858-14.136 3.72-3.72 8.876-5.858 14.156-5.858 5.258 0 10.418 2.14 14.136 5.858s5.858 8.878 5.858 14.136c0 5.258-2.14 10.416-5.858 14.136zM218.652 241.976l-58.37 32.070c-9.674 5.312-21.834 1.782-27.154-7.896-5.318-9.68-1.784-21.834 7.896-27.154l58.37-32.070c3.056-1.678 6.354-2.474 9.612-2.474 7.058 0 13.902 3.748 17.542 10.372 5.316 9.678 1.78 21.832-7.896 27.152zM813.316 378.096c-0.028 0.036-0.054 0.072-0.084 0.108l-56.158 72.974c-4.050 5.26-10.436 8.17-17.072 7.762-6.626-0.408-12.618-4.078-15.994-9.794l-55.892-94.698c-0.116-0.198-0.228-0.394-0.336-0.594-12.406-20.236-18.956-43.060-18.956-66.090 0-29.984 11.582-56.892 31.776-73.824 14.1-11.822 31.3-18.004 49.524-18.004 4.804 0 9.684 0.432 14.592 1.3 49.86 8.832 88.916 60.67 88.916 118.014 0 23.96-7.212 46.256-20.316 62.846zM737.74 236.614c-11.852-2.098-22.726 0.658-31.448 7.97-11.108 9.312-17.478 25.050-17.478 43.18 0 15.69 4.798 31.998 13.512 45.92 0.292 0.466 0.562 0.942 0.812 1.424l40.278 68.246 37.846-49.18c0.164-0.222 0.332-0.444 0.506-0.66 7.656-9.566 11.874-23.156 11.874-38.264 0-37.256-25.6-73.266-55.902-78.636z" />
<glyph unicode="&#xe926;" glyph-name="truck-1" d="M736.77 716.524c-2.604 8.362-10.342 14.058-19.098 14.058h-411.344c-8.756 0-16.494-5.696-19.098-14.058l-72.402-232.66c-3.942-12.67 5.84-25.942 19.098-25.942h556.148c13.258 0 23.040 13.272 19.098 25.942zM261.096 497.922l59.956 192.66h381.898l59.956-192.66zM964.048 669.648h-46.116c-8.976 0-17.536-1.822-25.328-5.112v234.938c0 29.122-23.702 52.814-52.836 52.814h-232.268c-11.044 0-20-8.954-20-20s8.956-20 20-20h232.27c7.078 0 12.836-5.748 12.836-12.814v-284.676l-5.344 17.166-39.392 126.582c-9.758 31.352-38.374 52.416-71.208 52.416h-449.324c-32.836 0-61.452-21.064-71.208-52.416l-41.98-134.902v275.83c0 7.066 5.748 12.814 12.814 12.814h243.76c11.044 0 20 8.954 20 20s-8.956 20-20 20h-243.762c-29.122 0-52.814-23.692-52.814-52.814v-236.18c-8.512 4.070-18.034 6.354-28.082 6.354h-46.114c-33.058 0-59.952-26.894-59.952-59.95v-101.222c0-33.056 26.894-59.95 59.952-59.95h71.454v-296.614c0-41.506 32.042-75.648 72.686-79.046v-75.912c0-29.36 23.884-53.244 53.244-53.244h79.694c29.36 0 53.246 23.884 53.246 53.244v75.61h235.222v-75.61c0-29.36 23.884-53.244 53.244-53.244h79.696c29.36 0 53.244 23.884 53.244 53.244v75.61h1.568c43.752 0 79.348 35.594 79.348 79.346v296.616h71.454c33.056 0 59.952 26.894 59.952 59.95v101.222c-0.004 33.056-26.898 59.95-59.956 59.95zM40 508.476v101.222c0 11 8.95 19.95 19.952 19.95h46.116c13.97 0 25.338-11.366 25.338-25.338v-115.784h-71.454c-11.002 0-19.952 8.948-19.952 19.95zM350.274-3.044c0-7.302-5.942-13.244-13.246-13.244h-79.694c-7.302 0-13.244 5.942-13.244 13.244v75.61h106.184zM559.954 225h-90.464v63.998c0 4.652 3.786 8.436 8.438 8.436h73.592c4.65 0 8.436-3.784 8.436-8.436v-63.998zM469.488 112.566v72.434h90.464v-72.434zM771.68-3.044c0-7.302-5.942-13.244-13.244-13.244h-79.696c-7.302 0-13.244 5.942-13.244 13.244v75.61h106.184zM852.596 151.912c0-21.696-17.65-39.346-39.348-39.346h-213.294v176.432c0 26.708-21.728 48.436-48.436 48.436h-73.592c-26.708 0-48.438-21.728-48.438-48.436v-176.432h-218.736c-21.698 0-39.348 17.652-39.348 39.346v328.294l82.928 266.46c4.516 14.532 17.78 24.296 33.006 24.296h449.324c15.226 0 28.49-9.764 33.010-24.306l82.924-266.45zM984 508.476c0-11-8.95-19.95-19.952-19.95h-71.444v115.976c0.106 13.882 11.422 25.146 25.328 25.146h46.116c11.002 0 19.952-8.95 19.952-19.95zM341.156 337.434h-71.876c-23.394 0-42.428-19.034-42.428-42.428v-60.082c0-23.396 19.034-42.428 42.428-42.428h71.876c23.394 0 42.428 19.034 42.428 42.428v60.082c0 23.396-19.034 42.428-42.428 42.428zM343.584 234.924c0-1.338-1.090-2.428-2.428-2.428h-71.876c-1.338 0-2.428 1.090-2.428 2.428v60.082c0 1.338 1.090 2.428 2.428 2.428h71.876c1.338 0 2.428-1.090 2.428-2.428zM760.554 337.434h-71.874c-23.396 0-42.43-19.034-42.43-42.428v-60.082c0-23.396 19.034-42.428 42.43-42.428h71.876c23.394 0 42.428 19.034 42.428 42.428v60.082c-0.002 23.396-19.034 42.428-42.43 42.428zM762.982 234.924c0-1.338-1.090-2.428-2.428-2.428h-71.874c-1.34 0-2.43 1.090-2.43 2.428v60.082c0 1.338 1.090 2.428 2.43 2.428h71.876c1.338 0 2.428-1.090 2.428-2.428v-60.082zM502.040 924.64c4.19-10.058 16.032-14.998 26.122-10.82 10.092 4.18 14.952 16.052 10.798 26.12-4.156 10.076-16.034 14.976-26.1 10.82-10.058-4.152-15.010-16.066-10.82-26.12z" />
<glyph unicode="&#xe927;" glyph-name="check-mark" d="M979.285 893.348c-46.208 24.881-97.748-23.104-127.961-51.54-69.309-67.535-127.958-145.733-193.718-216.822-72.867-78.198-140.401-156.397-215.045-232.82-42.654-42.654-88.862-88.862-117.297-142.179-63.98 62.206-119.075 129.741-190.164 184.832-51.54 39.099-136.847 67.535-135.070-26.658 3.554-122.632 111.966-254.147 191.941-337.674 33.767-35.545 78.198-72.867 129.738-74.644 62.203-3.554 126.184 71.089 163.505 111.966 65.761 71.089 119.078 151.068 179.501 223.931 78.198 95.971 158.174 190.167 234.595 287.915 47.985 60.426 199.050 209.716 79.975 273.694zM78.224 415.269c-1.777 0-3.554 0-7.109-1.774-7.109 1.774-12.441 3.554-19.55 7.109v0c5.332 3.554 14.218 1.777 26.658-5.335z" />
<glyph unicode="&#xe928;" glyph-name="right-arrow-1" d="M870.984 270.987c56.273 37.877 178.562 114.714 148.262 198.046-34.631 93.070-159.085 166.66-237.003 219.688-44.371 30.302-195.878 138.523-248.908 72.508-3.247-3.247-4.329-8.658-3.247-12.986-21.644-44.371-8.658-113.632-8.658-161.249 0-8.658 0-17.315 0-25.973-159.083 1.082-332.236 53.028-486.992 7.575-9.74-3.247-14.069-9.74-15.151-16.233-1.082 0-2.164-1.082-3.247-1.082-23.809-14.069-14.069-68.179-14.069-91.988 0-41.126-1.082-84.414 6.493-124.454 2.164-9.742 8.658-15.151 16.233-16.235 4.329-5.411 8.658-7.575 15.151-7.575 163.413 2.166 323.58 21.644 486.992 11.904 0-51.946-2.164-103.892-9.74-155.838-1.082-6.493 1.080-11.904 3.247-16.233-10.822-12.988 1.080-40.043 23.809-36.797 114.714 16.237 232.675 94.154 326.827 156.922z" />
<glyph unicode="&#xe929;" glyph-name="fast-delivery" d="M405.688 295.828h312.281c35.359 104.102 182.899 103.102 217.914 0h26.094v150.055c0 18.695-15.32 34.016-34.008 34.016-76.695 0-153.391 0-230.086 0-16.578 0-30.016 13.438-30.016 30.008v180.070h-514.188v-36.008h55.18c39.508 0 39.508-60.023 0-60.023h-55.18v-58.023h144.055c39.516 0 39.516-60.023 0-60.023h-144.055v-180.063h34.102c35.352 104.102 182.899 103.086 217.906-0.008zM93.656 593.945h-36.008c-39.516 0-39.516 60.023 0 60.023h36.008v66.023c0 16.57 13.438 30.008 30.016 30.008 45.93 0 550.703-0.195 550.703 0 82.156 0 153.719-40.672 195.828-111.336l58.844-98.75c51.352-0.578 92.953-42.586 92.953-94.023v-180.070c0-16.57-13.438-30.008-30.008-30.008h-52.32c-10.758-52.969-57.563-92.031-112.742-92.031s-101.984 39.063-112.742 92.031h-304.711c-10.758-52.969-57.563-92.031-112.742-92.031s-101.984 39.063-112.742 92.031h-60.32c-16.578 0-30.016 13.438-30.016 30.008v90.039h-66.023c-39.508 0-39.508 60.016 0 60.016h66.023v60.023h-66.023c-39.508 0-39.508 60.023 0 60.023h66.023zM865.836 297.726c21.484-21.484 21.484-56.328 0-77.813-34.563-34.563-93.93-9.977-93.93 38.906s59.367 73.469 93.93 38.906zM859.391 539.922h-131.5v141.922c38.289-12.273 69.602-38.039 90.961-73.891zM335.641 297.726c21.484-21.484 21.484-56.328 0-77.813-34.563-34.563-93.93-9.977-93.93 38.906 0.008 48.883 59.367 73.469 93.93 38.906z" />
<glyph unicode="&#xe92a;" glyph-name="connection" d="M287 163c70.198 0 134.4 25.198 183.6 67.2-27 31.802-47.398 68.4-60.6 108-30-33.6-73.8-55.2-123-55.2-91.202 0-167 73.798-167 165s75.798 165 167 165c91.776 0 165-75.004 165-165 0-156.164 126.492-285 285-285 157.2 0 287 127.8 287 285s-129.8 285-287 285c-70.198 0-134.4-25.198-183.6-67.2 27-31.802 47.398-68.4 60.6-108 30 33.6 73.798 55.198 123 55.198 91.202 0 167-73.798 167-165s-75.798-165-167-165c-91.776 0-165 75.004-165 165 0 156.164-126.492 285-285 285-157.2 0.002-287-127.798-287-284.998s129.8-285 287-285z" />
<glyph unicode="&#xe92b;" glyph-name="plastic-bottle" d="M1024 234.304c0 30.092-11.744 58.41-33.070 79.736l-161.482 161.48c-0.184 0.2-0.352 0.41-0.546 0.604s-0.402 0.36-0.602 0.544l-53.938 53.936c-7.812 7.808-20.472 7.808-28.286 0-7.81-7.81-7.81-20.474 0-28.286l40.368-40.368-66.786-66.786c-3.458-3.458-5.528-8.060-5.822-12.942-2.118-35.188-17.154-68.494-42.282-93.724-25.29-25.186-58.596-40.222-93.784-42.34-4.88-0.294-9.484-2.366-12.942-5.822l-66.786-66.786-193.808 193.808 66.758 66.758c3.458 3.458 5.528 8.062 5.822 12.944 2.12 35.256 17.166 68.55 42.368 93.752 25.202 25.204 58.498 40.25 93.754 42.368 4.88 0.294 9.486 2.366 12.942 5.822l66.758 66.758 25.316-25.316c3.906-3.904 9.024-5.858 14.142-5.858s10.236 1.954 14.142 5.858c7.81 7.81 7.81 20.474 0 28.286l-39.446 39.448c-0.004 0.004-0.006 0.008-0.010 0.012s-0.008 0.006-0.012 0.010l-48.348 48.35c-74.214 74.212-144.658 69.902-196.1 66.754-30.522-1.87-48.292-2.42-58.678 7.966l-25.6 25.598 1.562 1.562c3.75 3.752 5.858 8.842 5.858 14.146 0 5.306-2.11 10.394-5.864 14.144l-62.128 62.072c-13.674 13.676-31.924 21.208-51.386 21.208s-37.714-7.532-51.39-21.208l-93.486-93.486c-13.676-13.676-21.208-31.926-21.208-51.388s7.532-37.712 21.202-51.382l62.078-62.136c3.75-3.754 8.838-5.864 14.144-5.866h0.004c5.304 0 10.392 2.108 14.142 5.858l1.562 1.562 25.6-25.598c10.384-10.384 9.834-28.158 7.966-58.676-3.148-51.44-7.46-121.886 66.754-196.102l48.35-48.35c0.002-0.002 0.006-0.006 0.008-0.010s0.006-0.006 0.010-0.008l221.54-221.54c0.176-0.19 0.334-0.388 0.518-0.572s0.382-0.342 0.572-0.516l161.51-161.51c21.326-21.328 49.644-33.072 79.736-33.072 55.884 0 102.378 40.898 111.214 94.344 47.402 7.846 84.902 45.344 92.746 92.746 53.446 8.836 94.344 55.33 94.344 111.214zM49.492 770.812c-6.12 6.122-9.492 14.326-9.492 23.106s3.372 16.984 9.492 23.104l93.486 93.486c6.12 6.12 14.326 9.492 23.106 9.492s16.984-3.372 23.112-9.498l47.98-47.936-139.74-139.74zM186.624 595.236c2.070 33.822 4.026 65.772-19.608 89.404l-25.598 25.598 108.344 108.344 25.6-25.598c23.634-23.634 55.584-21.676 89.406-19.608 48.702 2.98 103.9 6.36 165.372-55.114l34.216-34.218-61.566-61.566c-42.134-4.328-81.612-23.108-111.888-53.38-30.274-30.276-49.052-69.752-53.378-111.886l-61.566-61.566-34.216 34.216c-61.478 61.474-58.1 116.674-55.118 165.374zM929.014 163.766c-4.302 21.614-14.872 41.51-30.808 57.5-7.798 7.822-20.458 7.842-28.286 0.046-7.822-7.796-7.844-20.46-0.046-28.286 13.748-13.794 21.32-32.074 21.32-51.474 0-40.114-32.634-72.748-72.748-72.748-19.4 0-37.68 7.572-51.474 21.32-7.826 7.798-20.486 7.778-28.286-0.046-7.796-7.824-7.776-20.488 0.046-28.286 15.99-15.936 35.888-26.506 57.5-30.808-7.962-31.556-36.564-54.984-70.536-54.984-19.408 0-37.68 7.584-51.452 21.356l-147.912 147.914 61.594 61.596c42.046 4.324 81.516 23.076 111.916 53.352 30.22 30.344 48.968 69.81 53.292 111.858l61.596 61.594 147.914-147.912c13.772-13.772 21.356-32.042 21.356-51.452 0-33.974-23.428-62.576-54.986-70.54zM587.45 534.292c-7.812 7.808-20.472 7.808-28.286 0l-131.188-131.188c-7.81-7.81-7.81-20.474 0-28.286 3.906-3.904 9.024-5.858 14.142-5.858s10.238 1.954 14.142 5.858l131.188 131.188c7.812 7.81 7.812 20.474 0.002 28.286zM627.196 466.26l-131.188-131.188c-7.81-7.81-7.81-20.474 0-28.286 3.906-3.904 9.024-5.858 14.142-5.858 5.12 0 10.236 1.954 14.142 5.858l131.188 131.188c7.81 7.81 7.81 20.474 0 28.286-7.812 7.808-20.472 7.808-28.284 0zM680.656 565.93c3.892-3.89 8.972-5.83 14.058-5.83 5.124 0 10.25 1.968 14.17 5.886 7.81 7.81 7.754 20.532-0.056 28.342-7.812 7.808-20.472 7.808-28.286 0-7.81-7.81-7.81-20.474 0-28.286z" />
<glyph unicode="&#xe92c;" glyph-name="left-quote" d="M955.252 498.138c-42.916 43.702-99.808 69.002-160.75 71.624-0.288 3.808-0.502 9.056-0.502 16.238 0 29.424 22.376 119.33 36.482 169.088l14.434 50.912h-175.168l-11.734-18.906c-4.654-7.5-114.014-186.798-114.014-457.094 0-132.336 107.664-240 240-240s240 107.664 240 240c0 63.282-24.416 122.994-68.748 168.138zM784 170c-88.224 0-160 71.776-160 160 0 198.64 65.672 345.668 91.624 396h24.258c-11.494-45.168-25.882-108.082-25.882-140 0-25.328 1.88-45.676 11.062-62.66 8.178-15.128 25.282-33.146 60.366-33.338l1.746-0.044c86.474-1.676 156.826-73.432 156.826-159.958 0-88.224-71.776-160-160-160zM411.252 498.138c-42.916 43.702-99.808 69.002-160.75 71.624-0.288 3.808-0.502 9.056-0.502 16.238 0 29.424 22.376 119.33 36.482 169.088l14.434 50.912h-175.168l-11.734-18.906c-4.654-7.5-114.014-186.798-114.014-457.094 0-132.336 107.664-240 240-240s240 107.664 240 240c0 63.282-24.416 122.994-68.748 168.138zM240 170c-88.224 0-160 71.776-160 160 0 198.64 65.672 345.668 91.624 396h24.258c-11.494-45.168-25.882-108.082-25.882-140 0-25.328 1.88-45.676 11.062-62.66 8.178-15.128 25.282-33.146 60.366-33.338l1.746-0.044c86.474-1.676 156.826-73.432 156.826-159.958 0-88.224-71.776-160-160-160z" />
<glyph unicode="&#xe92d;" glyph-name="email-1" d="M671.616 849.96l-108.878 91.456c-14.748 12.39-32.744 18.584-50.738 18.584s-35.99-6.194-50.738-18.584l-108.878-91.456zM92 558.224l407.686-318.504c4.486-3.504 9.172-4.24 12.314-4.24s7.828 0.736 12.312 4.24l407.688 318.504v191.736c0 22.092-17.908 40-40 40h-760c-22.092 0-40-17.908-40-40zM761 510c0-16.568-13.432-30-30-30h-438c-16.568 0-30 13.432-30 30s13.432 30 30 30h438c16.568 0 30-13.432 30-30zM577 660c16.568 0 30-13.432 30-30s-13.432-30-30-30h-284c-16.568 0-30 13.432-30 30s13.432 30 30 30zM944-64c8.208 0 16.124 1.24 23.578 3.536l-376.658 270.042c-1.34 0.962-2.548 2.034-3.682 3.162l-25.988-20.302c-14.47-11.306-31.862-16.958-49.252-16.958s-34.78 5.652-49.252 16.958l-25.988 20.302c-1.132-1.128-2.34-2.2-3.682-3.162l-376.654-270.042c7.454-2.296 15.37-3.536 23.578-3.536zM1024 553.96l-387.832-302.994 378.914-271.66c5.686 10.994 8.918 23.464 8.918 36.694zM387.832 250.966l-387.832 302.994v-537.96c0-13.23 3.232-25.7 8.918-36.692z" />
<glyph unicode="&#xe92e;" glyph-name="water-1" d="M923.432 275.012l-121.484-80.99c-10.358-55.702-59.288-98.020-117.946-98.020h-180c-16.568 0-30 13.432-30 30 0 16.524 13.362 29.922 29.87 29.994v0.006h180.128c33.138 0 60 26.862 60 60s-26.862 60-60 60h-180l-19.568 14.674c-38.968 29.228-87.256 45.326-135.97 45.326-41.066 0-81.384-11.166-116.596-32.294l-37.866-22.72v-305.29l275.758-39.394c1.468-0.206 2.922-0.316 4.364-0.302h205.14c42.862 0 83.812 16.010 115.306 45.084l208.62 192.572c13.266 12.246 20.812 29.478 20.812 47.532 0 51.664-57.58 82.482-100.568 53.822zM30 356.002c-16.568 0-30-13.432-30-30v-360c0-16.568 13.432-30 30-30h74c16.568 0 30 13.432 30 30v360c0 16.568-13.432 30-30 30zM552 349.998c-99.252 0-180 80.748-180 180 0 41.346 26.378 98.124 80.644 173.582 38.008 52.852 75.452 94.698 77.028 96.454 5.69 6.34 13.808 9.964 22.328 9.964s16.638-3.624 22.328-9.964c1.576-1.756 39.018-43.602 77.028-96.454 54.266-75.458 80.644-132.236 80.644-173.582 0-99.252-80.748-180-180-180zM822 659.998c-66.168 0-120 53.832-120 120 0 27.41 16.566 63.768 50.644 111.156 23.178 32.232 46.064 57.808 47.028 58.88 5.69 6.342 13.808 9.964 22.328 9.964s16.638-3.622 22.328-9.964c0.962-1.074 23.848-26.65 47.028-58.88 34.078-47.386 50.644-83.746 50.644-111.156 0-66.168-53.832-120-120-120zM282 659.998c-66.168 0-120 53.832-120 120 0 27.41 16.566 63.768 50.644 111.156 23.178 32.232 46.064 57.808 47.028 58.88 5.69 6.342 13.808 9.964 22.328 9.964s16.638-3.622 22.328-9.964c0.962-1.074 23.848-26.65 47.028-58.88 34.078-47.386 50.644-83.746 50.644-111.156 0-66.168-53.832-120-120-120z" />
<glyph unicode="&#xe92f;" glyph-name="pdf" d="M1023.723 491.989c-0.128 1.941-0.491 3.797-1.131 5.632-0.235 0.683-0.405 1.344-0.704 2.005-1.024 2.219-2.325 4.309-4.117 6.080-0.021 0.021-0.021 0.021-0.021 0.021l-121.749 121.771v119.168c0 0.469-0.235 0.875-0.277 1.344-0.128 1.877-0.491 3.691-1.088 5.483-0.235 0.683-0.405 1.344-0.725 2.005-1.045 2.261-2.347 4.416-4.181 6.251l-192 192c-1.835 1.835-3.989 3.157-6.272 4.203-0.64 0.277-1.28 0.469-1.92 0.683-1.835 0.64-3.712 1.003-5.632 1.131-0.427 0.021-0.811 0.235-1.237 0.235h-533.333c-11.776 0-21.333-9.557-21.333-21.333v-311.168l-121.749-121.749c0 0-0.021-0.021-0.043-0.043-1.792-1.792-3.072-3.883-4.096-6.080-0.299-0.661-0.469-1.323-0.704-2.005-0.64-1.835-1.024-3.691-1.131-5.632-0.043-0.469-0.277-0.853-0.277-1.323v-405.333c0-11.776 9.557-21.333 21.333-21.333h106.667v-106.667c0-11.776 9.557-21.333 21.333-21.333h725.333c11.776 0 21.333 9.557 21.333 21.333v106.667h106.667c11.776 0 21.333 9.557 21.333 21.333v405.333c0 0.469-0.235 0.853-0.277 1.323zM951.168 512h-55.168v55.168l55.168-55.168zM823.168 768h-119.168v119.168l119.168-119.168zM170.667 917.333h490.667v-170.667c0-11.776 9.557-21.333 21.333-21.333h170.667v-213.333h-682.667v405.333zM128 567.168v-55.168h-55.168l55.168 55.168zM853.333-21.333h-682.667v85.333h682.667v-85.333zM981.333 106.667h-938.667v362.667h938.667v-362.667zM389.419 389.973c-6.891 5.909-14.677 10.091-23.403 12.501-8.704 2.411-17.173 3.627-25.387 3.627h-71.083v-256.768h42.795v102.997h30.464c8.939 0 17.643 1.579 26.112 4.715s15.957 7.979 22.485 14.507c6.528 6.528 11.776 14.677 15.787 24.491 3.989 9.792 5.995 21.205 5.995 34.261 0 14.507-2.24 26.603-6.72 36.267s-10.155 17.472-17.045 23.403zM362.048 298.56c-6.528-7.125-14.869-10.688-25.024-10.688h-24.661v81.6h24.661c10.155 0 18.496-3.136 25.024-9.429s9.792-16.32 9.792-30.101c0-13.781-3.264-24.235-9.792-31.381zM655.424 149.333h43.883v110.251h65.643v37.355h-65.984v69.995h71.424v39.168h-114.965zM513.621 406.101h-64.555v-256.768h64.192c33.131 0 58.219 11.179 75.264 33.536 17.045 22.379 25.557 53.867 25.557 94.485s-8.512 72.235-25.557 94.848c-17.045 22.592-42.005 33.899-74.901 33.899zM566.4 238.016c-2.773-11.264-6.72-20.629-11.776-28.117-5.077-7.488-11.115-13.12-18.133-16.853-7.019-3.755-14.635-5.632-22.848-5.632h-20.672v180.608h20.672c8.213 0 15.829-1.877 22.848-5.632 7.019-3.733 13.056-9.365 18.133-16.853s9.003-16.917 11.776-28.288 4.181-24.661 4.181-39.893c0-14.997-1.408-28.096-4.181-39.339z" />
<glyph unicode="&#xe930;" glyph-name="doc" d="M1023.744 491.947c-0.128 1.941-0.491 3.819-1.152 5.675-0.235 0.683-0.405 1.344-0.704 2.005-1.024 2.197-2.304 4.245-4.075 6.037-0.021 0.043-0.043 0.064-0.085 0.107l-121.728 121.728v119.168c0 0.448-0.235 0.853-0.256 1.301-0.128 1.899-0.491 3.733-1.109 5.525-0.235 0.683-0.405 1.323-0.704 1.984-1.045 2.261-2.347 4.416-4.181 6.251l-192 192c-1.813 1.813-3.968 3.115-6.208 4.16-0.683 0.32-1.387 0.512-2.112 0.747-1.728 0.576-3.499 0.939-5.312 1.067-0.512 0.043-0.96 0.299-1.451 0.299h-533.333c-11.797 0-21.333-9.557-21.333-21.333v-311.168l-121.728-121.728c-0.043-0.043-0.043-0.064-0.085-0.107-1.771-1.771-3.051-3.84-4.075-6.037-0.299-0.64-0.469-1.323-0.704-2.005-0.64-1.835-1.024-3.712-1.152-5.675-0.021-0.448-0.256-0.832-0.256-1.28v-405.333c0-11.776 9.536-21.333 21.333-21.333h106.667v-106.667c0-11.776 9.536-21.333 21.333-21.333h725.333c11.797 0 21.333 9.557 21.333 21.333v106.667h106.667c11.797 0 21.333 9.557 21.333 21.333v405.333c0 0.448-0.235 0.832-0.256 1.28zM951.168 512h-55.168v55.168l55.168-55.168zM823.168 768h-119.168v119.168l119.168-119.168zM170.667 917.333h490.667v-170.667c0-11.776 9.536-21.333 21.333-21.333h170.667v-213.333h-682.667v405.333zM128 567.168v-55.168h-55.168l55.168 55.168zM853.333-21.333h-682.667v85.333h682.667v-85.333zM981.333 106.667h-938.667v362.667h938.667v-362.667zM302.379 406.101h-64.555v-256.768h64.192c33.131 0 58.219 11.179 75.264 33.557 17.045 22.357 25.557 53.845 25.557 94.464s-8.512 72.235-25.557 94.848c-17.067 22.592-42.027 33.899-74.901 33.899zM355.136 238.016c-2.773-11.264-6.72-20.629-11.797-28.117s-11.115-13.12-18.133-16.853c-7.019-3.755-14.635-5.632-22.848-5.632h-20.672v180.608h20.672c8.213 0 15.829-1.877 22.848-5.611 7.019-3.755 13.056-9.387 18.133-16.875s9.003-16.917 11.797-28.288c2.773-11.371 4.16-24.661 4.16-39.893 0.021-14.997-1.365-28.096-4.16-39.339zM705.301 344.448c4.352 8.469 9.792 15.168 16.32 20.139 6.528 4.949 14.144 7.424 22.848 7.424 15.723 0 28.523-7.125 38.443-21.397l25.024 30.464c-7.019 10.155-16.085 17.941-27.2 23.403-11.115 5.44-24.064 8.149-38.805 8.149-14.272 0-27.264-3.328-38.976-9.963-11.733-6.656-21.696-15.957-29.931-27.925-8.213-11.989-14.571-26.24-19.029-42.795-4.48-16.576-6.72-34.645-6.72-54.229s2.24-37.589 6.72-54.037c4.48-16.448 10.752-30.635 18.859-42.603 8.107-11.989 18.005-21.355 29.739-28.117s24.853-10.155 39.36-10.155c15.957 0 29.184 3.136 39.701 9.429s19.157 14.507 25.92 24.661l-25.024 29.376c-4.117-6.293-9.237-11.605-15.403-15.957s-13.483-6.528-21.931-6.528c-8.939 0-16.747 2.475-23.403 7.445-6.656 4.949-12.139 11.648-16.491 20.117s-7.616 18.432-9.792 29.931c-2.176 11.477-3.264 23.616-3.264 36.437 0 13.056 1.088 25.323 3.264 36.821 2.155 11.477 5.419 21.44 9.771 29.909zM593.237 375.637c-7.979 11.84-17.707 20.971-29.184 27.392-11.477 6.4-24.363 9.6-38.613 9.6-14.507 0-27.499-3.2-38.976-9.6-11.477-6.421-21.205-15.552-29.184-27.392s-14.016-25.984-18.133-42.432-6.165-34.816-6.165-55.125 2.112-38.741 6.357-55.296c4.224-16.576 10.347-30.784 18.304-42.624 7.979-11.84 17.643-21.035 29.013-27.563s24.299-9.792 38.805-9.792c14.272 0 27.136 3.264 38.613 9.792s21.205 15.723 29.184 27.563c7.979 11.84 14.080 26.048 18.304 42.624 4.224 16.555 6.357 34.987 6.357 55.296s-2.112 38.677-6.357 55.125-10.347 30.592-18.325 42.432zM570.027 241.28c-1.941-11.499-4.885-21.461-8.875-29.931s-8.939-15.104-14.869-19.947c-5.931-4.843-12.885-7.253-20.864-7.253s-14.933 2.411-20.864 7.253c-5.931 4.843-10.88 11.477-14.869 19.947s-6.955 18.432-8.896 29.931c-1.941 11.477-2.901 23.744-2.901 36.8s0.96 25.323 2.901 36.821c1.941 11.477 4.885 21.376 8.896 29.739 3.989 8.341 8.939 14.912 14.869 19.755s12.885 7.253 20.864 7.253c7.744 0 14.571-2.411 20.48-7.253 5.931-4.843 10.88-11.413 14.869-19.755 3.989-8.363 7.019-18.261 9.067-29.739 2.048-11.499 3.093-23.765 3.093-36.821s-0.96-25.323-2.901-36.8z" />
<glyph unicode="&#xe931;" d="M1024 448c0-282.77-229.23-512-512-512s-512 229.23-512 512c0 282.77 229.23 512 512 512s512-229.23 512-512z" />
<glyph unicode="&#xe932;" d="M750.799 545.121l-580.132-267.788 341.333-341.333c229.493 0 423.715 150.993 488.755 359.052l-249.956 250.070z" />
<glyph unicode="&#xe933;" d="M860.877 277.333h-249.604v284.444h98.194c22.58 0 43.222-12.757 53.32-32.954l40.412-80.824 51.841-39.422c17.601-10.857 28.317-30.058 28.317-50.738v-58.027c0-12.416-10.064-22.48-22.48-22.48z" />
<glyph unicode="&#xe934;" d="M625.778 277.333h-455.111v354.552c0 24.121 19.553 43.67 43.673 43.67h367.768c24.121 0 43.673-19.553 43.673-43.67v-354.552h-0.003z" />
<glyph unicode="&#xe935;" d="M625.778 631.882c0 24.121-19.553 43.673-43.673 43.673h-72.98v-398.222h116.653v354.549z" />
<glyph unicode="&#xe936;" d="M732.994 524.903l39.315-78.627h-113.778v93.091h51.062c9.909 0 18.97-5.599 23.4-14.464z" />
<glyph unicode="&#xe937;" d="M388.162 277.333c0-44.35-35.953-80.303-80.303-80.303s-80.303 35.953-80.303 80.303c0 44.35 35.953 80.303 80.303 80.303s80.303-35.953 80.303-80.303z" />
<glyph unicode="&#xe938;" d="M338.889 277.333c0-17.138-13.893-31.030-31.030-31.030s-31.030 13.893-31.030 31.030c0 17.138 13.893 31.030 31.030 31.030s31.030-13.893 31.030-31.030z" />
<glyph unicode="&#xe939;" d="M843.273 277.333c0-44.35-35.953-80.303-80.303-80.303s-80.303 35.953-80.303 80.303c0 44.35 35.953 80.303 80.303 80.303s80.303-35.953 80.303-80.303z" />
<glyph unicode="&#xe93a;" d="M794.003 277.333c0-17.138-13.893-31.030-31.030-31.030s-31.030 13.893-31.030 31.030c0 17.138 13.893 31.030 31.030 31.030s31.030-13.893 31.030-31.030z" />
<glyph unicode="&#xe93b;" d="M1024 448c0-282.773-229.227-512-512-512s-512 229.227-512 512 229.227 512 512 512 512-229.227 512-512z" />
<glyph unicode="&#xe93c;" d="M186.859 343.727l401.984-401.984c220.672 33.211 395.203 207.25 429.156 427.68l-148 148z" />
<glyph unicode="&#xe93d;" d="M512 682.961c-173.93 0-325.781-94.508-407.031-234.961 81.25-140.453 233.102-234.961 407.031-234.961s325.781 94.508 407.031 234.961c-81.25 140.453-233.102 234.961-407.031 234.961z" />
<glyph unicode="&#xe93e;" d="M512 682.961c-0.125 0-0.258-0.008-0.383-0.008v-469.906c0.125 0 0.258-0.008 0.383-0.008 173.93 0 325.781 94.508 407.031 234.961-81.25 140.453-233.102 234.961-407.031 234.961z" />
<glyph unicode="&#xe93f;" d="M734.961 448c0-123.133-99.828-222.961-222.961-222.961s-222.961 99.828-222.961 222.961 99.828 222.961 222.961 222.961 222.961-99.828 222.961-222.961z" />
<glyph unicode="&#xe940;" d="M512 670.961c-0.125 0-0.258-0.008-0.383-0.008v-445.906h0.383c123.133 0 222.961 99.82 222.961 222.961 0 123.133-99.828 222.953-222.961 222.953z" />
<glyph unicode="&#xe941;" d="M644.219 448c0-73.023-59.195-132.219-132.219-132.219s-132.219 59.195-132.219 132.219 59.195 132.219 132.219 132.219 132.219-59.195 132.219-132.219z" />
<glyph unicode="&#xe942;" d="M512 580.219c-0.125 0-0.258-0.008-0.383-0.008v-264.422c0.133 0 0.258-0.008 0.383-0.008 73.023 0 132.219 59.195 132.219 132.219s-59.195 132.219-132.219 132.219z" />
<glyph unicode="&#xe943;" d="M601.992 442.078c-5.781 10.383-15.039 19.086-27.75 26.102s-33.75 13.945-63.133 20.797c-11.867 2.68-19.391 5.57-22.555 8.672-3.266 3-4.898 6.375-4.898 10.125 0 5.141 1.984 9.5 5.938 13.086s9.844 5.383 17.656 5.383c9.5 0 16.945-2.414 22.328-7.227 5.398-4.82 8.93-12.531 10.617-23.133l63.352 4.016c-2.766 24.414-11.445 42.219-26.039 53.406-7.672 5.891-17.227 10.18-28.555 12.977v37.367h-73.906v-37.711c-5.383-1.367-10.289-3.039-14.609-5.078-13.008-6.156-22.75-14.617-29.234-25.383-6.477-10.758-9.719-22.188-9.719-34.289 0-18.414 6.336-33.57 18.992-45.453 12.563-11.883 33.586-21.422 63.063-28.594 18.008-4.281 29.477-8.828 34.43-13.648 4.945-4.82 7.414-10.281 7.414-16.383 0-6.422-2.594-12.070-7.789-16.945s-12.586-7.305-22.188-7.305c-12.852 0-22.75 4.766-29.672 14.289-4.25 5.891-7.070 14.461-8.453 25.703l-63.953-4.336c1.883-23.773 9.938-43.367 24.188-58.789 8.469-9.172 21-15.594 37.523-19.305v-38.063h73.914v37.945c6.469 1.563 12.414 3.617 17.797 6.172 13.844 6.586 24.633 16.25 32.344 28.992 7.719 12.742 11.578 26.664 11.578 41.758 0 12.852-2.891 24.469-8.68 34.852z" />
<glyph unicode="&#xe944;" d="M529.586 519.016c5.391-4.82 8.922-12.531 10.609-23.133l63.359 4.016c-2.773 24.414-11.453 42.219-26.039 53.406-7.68 5.891-17.234 10.18-28.563 12.969v37.375h-37.336v-77.609c7.437-0.648 13.437-2.977 17.969-7.023z" />
<glyph unicode="&#xe945;" d="M601.992 442.078c-5.781 10.383-15.039 19.086-27.75 26.102-12.633 6.969-33.516 13.867-62.625 20.68v-63.781c13.398-3.68 22.188-7.539 26.352-11.594 4.945-4.813 7.414-10.273 7.414-16.383 0-6.422-2.594-12.070-7.789-16.945-5.188-4.867-12.586-7.305-22.18-7.305-1.305 0-2.555 0.086-3.797 0.18v-80.68h37.336v37.945c6.469 1.57 12.414 3.617 17.797 6.172 13.852 6.586 24.633 16.25 32.344 28.992 7.719 12.742 11.578 26.664 11.578 41.758 0 12.859-2.891 24.477-8.68 34.859z" />
<glyph unicode="&#xe946;" d="M1024 448c0-282.77-229.23-512-512-512s-512 229.23-512 512c0 282.77 229.23 512 512 512s512-229.23 512-512z" />
<glyph unicode="&#xe947;" d="M564.23 575.418l-142.508 141.284 5.076-34.588 2.458-6.662 7.944-20.748 224.97-226.59-150.166-264.55 190.794-190.794c150.422 60.448 265.502 190.22 305.696 349.78l-393.698 394.134-24.866-50.124-71.66 71.784-12.102-69.126 233.89-232.352-175.828 138.552z" />
<glyph unicode="&#xe948;" d="M376.674 599.486l-135.328-135.34 270.654-300.59v435.93z" />
<glyph unicode="&#xe949;" d="M647.326 599.486h-135.326v-435.93l270.654 300.59z" />
<glyph unicode="&#xe94a;" d="M376.674 599.486l-135.328-135.34h270.654v135.34z" />
<glyph unicode="&#xe94b;" d="M647.326 599.486h-135.326v-135.34h270.654z" />
<glyph unicode="&#xe94c;" d="M512 163.556l-113.778 300.59 56.89 135.34h113.776l56.89-135.34z" />
<glyph unicode="&#xe94d;" d="M568.888 599.486h-56.888v-435.926l113.778 300.586z" />
<glyph unicode="&#xe94e;" d="M398.222 464.146l56.89 135.34h113.776l56.89-135.34z" />
<glyph unicode="&#xe94f;" d="M568.888 599.486h-56.888v-135.34h113.778z" />
<glyph unicode="&#xe950;" d="M512 666.936c-4.762 0-8.62 3.858-8.62 8.62v56.888c0 4.762 3.858 8.62 8.62 8.62s8.62-3.858 8.62-8.62v-56.888c0-4.762-3.858-8.62-8.62-8.62z" />
<glyph unicode="&#xe951;" d="M512 741.064v-74.128c4.762 0 8.62 3.858 8.62 8.62v56.888c0 4.762-3.858 8.62-8.62 8.62z" />
<glyph unicode="&#xe952;" d="M580.95 652.4c-1.414 0-2.848 0.348-4.172 1.080-4.164 2.306-5.668 7.554-3.362 11.716l27.582 49.758c2.306 4.162 7.554 5.668 11.716 3.362 4.164-2.306 5.668-7.554 3.362-11.716l-27.582-49.758c-1.574-2.838-4.514-4.442-7.544-4.442z" />
<glyph unicode="&#xe953;" d="M443.050 652.4c-3.030 0-5.968 1.6-7.544 4.44l-27.582 49.76c-2.306 4.162-0.804 9.41 3.362 11.716 4.158 2.306 9.406 0.806 11.716-3.362l27.582-49.758c2.306-4.162 0.804-9.41-3.362-11.716-1.324-0.732-2.758-1.080-4.172-1.080z" />
<glyph unicode="&#xe954;" glyph-name="close" d="M52.912-64.003c-13.489 0-26.977 5.131-37.225 15.456-20.574 20.574-20.574 53.929 0 74.502l918.614 918.614c20.574 20.574 53.929 20.574 74.502 0s20.574-53.929 0-74.515l-918.601-918.601c-10.325-10.261-23.814-15.456-37.29-15.456zM971.59-64.003c-13.489 0-26.964 5.131-37.225 15.456l-918.678 918.601c-20.574 20.587-20.574 53.942 0 74.515s53.929 20.574 74.515 0l918.601-918.614c20.574-20.574 20.574-53.929 0-74.502-10.325-10.261-23.801-15.456-37.213-15.456z" />
<glyph unicode="&#xe955;" glyph-name="rating" d="M512 960c-187.514 0-352-164.486-352-352 0-187.036 163.596-352 352-352 190.158 0 352 166.836 352 352 0 187.514-164.486 352-352 352zM512 296c-62.77 0-126.224 21.576-179.77 60.918 4.618 95.268 83.206 171.082 179.77 171.082 96.522 0 175.152-75.778 179.77-171.082-53.544-39.342-117-60.918-179.77-60.918zM412 668c0 55.14 44.86 100 100 100s100-44.86 100-100-44.86-100-100-100-100 44.86-100 100zM728.36 388.108c-14.012 76.49-67.586 138.202-136.49 165.008 36.308 25.32 60.13 67.362 60.13 114.884 0 77.196-62.804 140-140 140s-140-62.804-140-140c0-47.522 23.822-89.564 60.13-114.884-68.796-26.764-122.454-88.386-136.49-165.008-60.434 59.508-95.64 139.338-95.64 219.892 0 166.206 145.794 312 312 312s312-145.794 312-312c0-80.554-35.206-160.386-95.64-219.892zM645.14 96.34c-2.354 7.24-8.612 12.516-16.144 13.612l-68.454 9.948-30.608 62.030c-3.37 6.828-10.322 11.15-17.936 11.15s-14.566-4.322-17.936-11.15l-30.608-62.030-68.454-9.948c-7.534-1.094-13.792-6.372-16.144-13.612s-0.39-15.188 5.060-20.502l49.53-48.28-11.7-68.176c-1.29-7.502 1.794-15.086 7.954-19.562 6.164-4.476 14.328-5.066 21.064-1.524l61.236 32.19 61.232-32.188c6.832-3.59 14.988-2.89 21.064 1.524 6.158 4.476 9.242 12.060 7.954 19.562l-11.7 68.176 49.53 48.28c5.452 5.312 7.412 13.26 5.060 20.5zM555.1 48.862c-4.712-4.594-6.866-11.216-5.75-17.704l6.624-38.596-34.666 18.222c-2.914 1.532-6.11 2.296-9.306 2.296s-6.392-0.766-9.306-2.296l-34.666-18.222 6.624 38.596c1.116 6.488-1.038 13.11-5.75 17.704l-28.042 27.334 38.758 5.632c6.514 0.946 12.146 5.040 15.058 10.942l17.322 35.11 17.324-35.11c2.912-5.904 8.544-9.996 15.058-10.942l38.758-5.632-28.040-27.334zM325.14 96.34c-2.354 7.24-8.612 12.516-16.144 13.612l-68.454 9.948-30.608 62.030c-3.37 6.828-10.322 11.15-17.936 11.15s-14.566-4.322-17.936-11.15l-30.604-62.030-68.454-9.948c-7.534-1.094-13.792-6.372-16.144-13.612s-0.39-15.188 5.060-20.502l49.53-48.28-11.7-68.176c-1.29-7.502 1.794-15.086 7.954-19.562 6.162-4.476 14.328-5.066 21.064-1.524l61.232 32.19 61.232-32.188c6.832-3.59 14.988-2.89 21.064 1.524 6.158 4.476 9.242 12.060 7.954 19.562l-11.7 68.176 49.53 48.28c5.452 5.312 7.412 13.26 5.060 20.5zM235.1 48.862c-4.712-4.594-6.866-11.216-5.75-17.704l6.624-38.596-34.666 18.222c-2.914 1.532-6.11 2.296-9.306 2.296s-6.392-0.766-9.306-2.296l-34.666-18.222 6.624 38.596c1.116 6.488-1.038 13.11-5.75 17.704l-28.044 27.334 38.758 5.632c6.514 0.946 12.146 5.040 15.058 10.942l17.324 35.11 17.324-35.11c2.912-5.904 8.544-9.996 15.058-10.942l38.758-5.632-28.040-27.334zM965.14 96.34c-2.354 7.24-8.612 12.516-16.144 13.612l-68.454 9.948-30.608 62.030c-3.37 6.828-10.322 11.15-17.936 11.15s-14.566-4.322-17.936-11.15l-30.608-62.030-68.454-9.948c-7.534-1.094-13.792-6.372-16.144-13.612s-0.39-15.188 5.060-20.502l49.53-48.28-11.7-68.176c-1.29-7.502 1.794-15.086 7.954-19.562 6.164-4.476 14.328-5.066 21.064-1.524l61.236 32.19 61.232-32.188c6.832-3.59 14.988-2.89 21.064 1.524 6.158 4.476 9.242 12.060 7.954 19.562l-11.7 68.176 49.53 48.28c5.452 5.312 7.412 13.26 5.060 20.5zM875.1 48.862c-4.712-4.594-6.866-11.216-5.75-17.704l6.624-38.596-34.666 18.222c-2.914 1.532-6.11 2.296-9.306 2.296s-6.392-0.766-9.306-2.296l-34.666-18.222 6.624 38.596c1.116 6.488-1.038 13.11-5.75 17.704l-28.042 27.334 38.758 5.632c6.514 0.946 12.146 5.040 15.058 10.942l17.322 35.11 17.324-35.11c2.912-5.904 8.544-9.996 15.058-10.942l38.758-5.632-28.040-27.334z" />
<glyph unicode="&#xe956;" glyph-name="businessman" d="M999.13 174.192c-2.73 69.762-25.6 206.876-92.832 229.722-27.846 9.562-69.036 21.43-112.642 33.998-22.396 6.454-46.77 13.48-69.606 20.332l-30.588 38.208c39.944 58.506 62.688 126.306 63.142 190.026 0 0.094 0 0.19 0 0.286-0.534 74.848-26.652 144.276-73.54 195.49-45.234 49.408-106.962 77.746-169.358 77.746-0.692 0-1.396-0.004-2.090-0.010-63.098 0.68-125.706-27.774-171.448-77.738-46.89-51.216-73.008-120.642-73.542-195.486 0-0.094 0-0.19 0-0.286 0.46-64.348 22.99-132.462 62.53-190.812l-28.748-35.904c-23.738-7.186-49.422-14.618-72.898-21.41-42.652-12.342-82.938-24-110.136-33.332-66.924-22.678-89.332-174.248-92.382-231.452-2.48-25.452 2.452-141.756 14.26-220.534 1.468-9.792 9.878-17.036 19.78-17.036h905.308c9.888 0 18.292 7.226 19.774 17.002 11.934 78.702 17.256 194.116 15.014 221.19zM744.527 368.661l-55.1-21.304c-7.366-2.848-12.366-9.764-12.762-17.652s3.886-15.27 10.93-18.84l66.9-33.916-156.234-133.728c0.816 2.576 1.626 5.182 2.428 7.848 18.386 61.208 29.806 137.988 29.806 200.374 0 23.82-1.722 47.416-5 69.942 14.816 12.108 29.26 26.294 42.938 42.328l76.094-95.052zM509.523 919.996c0.626 0 1.248-0.004 1.874-0.010 0.144-0.002 0.292-0.002 0.436 0 89.078 0.976 165.646-65.676 193.534-158.326-32.282-3.756-66.562-2.642-100.358 3.346-57.376 10.208-107.882 32.846-146.072 65.474-20.612 17.59-37.056 37.936-48.218 59.504 29.29 19.096 63.006 30.012 98.804 30.012zM379.051 864.498c11.022-19.424 25.452-37.792 42.73-54.326-24.776-51.542-66.072-91.42-114.788-111.378 3.454 66.28 30.792 125.322 72.058 165.704zM308.641 656.735c60.818 20.65 112.972 66.634 144.808 127.422 40.38-28.688 89.808-48.792 144.566-58.534 23.392-4.146 46.542-6.218 69.3-6.218 15.758 0 31.326 1.018 46.652 3.006 1.644-11.672 2.542-23.624 2.636-35.792-1.054-135.634-120.11-273.363-204.99-273.363-80.472 0-187.112 116.3-202.972 243.48zM354.123 462.853c13.772-16.166 28.394-30.426 43.454-42.556-3.178-22.194-4.842-45.414-4.842-68.854 0-62.388 11.42-139.166 29.806-200.374 0.8-2.662 1.608-5.27 2.422-7.842l-158.62 135.77 50.924 32.91c5.994 3.874 9.468 10.646 9.122 17.772s-4.466 13.528-10.808 16.8l-38.666 19.948 77.208 96.426zM284.239-24.008v0.006c-0.76 37.584-0.844 76.004-0.232 114.5 0.176 11.044-8.634 20.14-19.68 20.314-0.108 0.002-0.216 0.002-0.324 0.002-10.898 0-19.818-8.746-19.992-19.682-0.614-38.7-0.536-77.328 0.22-115.136h-167.79c-9.894 76.584-13.506 176.522-11.62 193.86 0.042 0.376 0.072 0.752 0.090 1.128 1.62 31.27 8.206 80.214 21.824 123.802 18.68 59.79 38 70.49 43.548 72.372 26.346 9.042 66.176 20.566 108.344 32.768 6.188 1.79 12.174 3.528 18.066 5.238l-26.274-32.814c-3.748-4.68-5.198-10.796-3.95-16.664 1.248-5.866 5.062-10.862 10.392-13.612l29.694-15.32-44.446-28.724c-5.302-3.428-8.676-9.158-9.1-15.458s2.154-12.43 6.95-16.536l271.649-232.516 0.002-57.528h-207.372zM511.615 72.778c-6.618 0-28.636 16.132-50.764 89.8-17.342 57.736-28.116 130.104-28.116 188.866 0 14.778 0.726 29.426 2.11 43.716 19.010-10.422 38.182-17.322 56.772-20.268v-101.45c0-11.020 8.96-20 20-20 11.020 0 20 8.98 20 20v101.526c18.464 3.052 37.616 10.158 56.69 20.868 1.43-14.504 2.188-29.378 2.188-44.39 0-58.762-10.774-131.13-28.116-188.866-22.128-73.67-44.146-89.802-50.764-89.802zM946.964-24.002h-167.968c0.752 37.818 0.832 76.446 0.216 115.136-0.176 11.046-9.322 19.888-20.316 19.678-11.044-0.174-19.854-9.27-19.678-20.316 0.612-38.486 0.53-76.906-0.228-114.5h-207.376v57.524l271.653 232.522c5.078 4.346 7.648 10.94 6.852 17.576-0.796 6.634-4.852 12.434-10.814 15.458l-53.58 27.164 38.686 14.958c5.944 2.298 10.438 7.292 12.098 13.448 1.66 6.154 0.286 12.73-3.698 17.706l-25.164 31.432c4.89-1.414 9.846-2.844 14.934-4.31 43.11-12.422 83.83-24.156 110.788-33.414 34.894-11.858 62.688-111.692 65.808-193.874 0.014-0.352 0.036-0.704 0.068-1.054 1.718-18.884-2.226-118.578-12.282-195.134zM511.617 213.441c-11.040 0-20-8.98-20-20s8.96-20 20-20c11.020 0 20 8.98 20 20 0 11.018-8.98 20-20 20z" />
<glyph unicode="&#xe957;" glyph-name="map" d="M234.080 627.999c-81.608 0-148-66.862-148-149.044 0-77.702 120.59-192.706 134.34-205.564 3.844-3.594 8.752-5.392 13.66-5.392s9.816 1.796 13.66 5.392c13.75 12.858 134.34 127.862 134.34 205.564 0 82.184-66.392 149.044-148 149.044zM234.080 315.835c-46.526 46.478-108 121.802-108 163.12 0 60.128 48.448 109.044 108 109.044s108-48.916 108-109.044c0-41.32-61.474-116.644-108-163.12zM234.080 554.947c-41.906 0-75.998-34.036-75.998-75.87 0-41.836 34.092-75.872 75.998-75.872 41.908 0 76.002 34.036 76.002 75.872 0 41.834-34.094 75.87-76.002 75.87zM234.080 443.207c-19.848 0-35.998 16.092-35.998 35.872 0 19.778 16.148 35.87 35.998 35.87 19.852 0 36.002-16.090 36.002-35.87 0-19.782-16.15-35.872-36.002-35.872zM768.002 886.946c-41.906 0-75.998-34.036-75.998-75.87 0-41.836 34.092-75.872 75.998-75.872 41.908 0 76.002 34.036 76.002 75.872 0 41.834-34.096 75.87-76.002 75.87zM768.002 775.206c-19.85 0-35.998 16.092-35.998 35.872 0 19.778 16.148 35.87 35.998 35.87 19.852 0 36.002-16.090 36.002-35.87 0-19.782-16.15-35.872-36.002-35.872zM1013.488 957.604c-6.476 3.492-14.346 3.144-20.488-0.904l-100.11-65.926c-26.29 41.57-72.428 69.226-124.89 69.226-81.608 0-148-66.86-148-149.044 0-77.702 120.59-192.708 134.34-205.564 3.844-3.594 8.752-5.392 13.66-5.392s9.816 1.796 13.66 5.392c13.75 12.858 134.34 127.862 134.34 205.564 0 14.944-2.22 29.372-6.304 42.994l74.304 48.93v-354.245l-150.042 25.534c-21.422 3.646-43.228-2.304-59.832-16.32s-26.126-34.516-26.126-56.244c0-18.53-15.076-33.606-33.606-33.606h-40.998c-44.058 0-79.902 35.844-79.902 79.902 0 24.878-12.416 47.88-33.214 61.534l-23.284 15.286c-9.234 6.062-21.634 3.49-27.696-5.744s-3.49-21.632 5.744-27.696l23.284-15.286c9.496-6.234 15.166-16.736 15.166-28.094 0-66.114 53.788-119.902 119.902-119.902h40.998c40.586 0 73.606 33.020 73.606 73.606 0 9.92 4.348 19.28 11.928 25.68 7.582 6.4 17.546 9.116 27.318 7.452l156.754-26.676v-201.562l-123.43-34.276c-10.642-2.956-16.876-13.98-13.918-24.622 2.458-8.854 10.498-14.654 19.26-14.654 1.77 0 3.572 0.238 5.362 0.734l112.726 31.304v-82.208l-307.999-202.83-304.563 200.568 21.034 70.11c4.3 14.33 13.664 26.554 26.372 34.426 0.562 0.348 1.128 0.688 1.712 1.022 14.178 8.16 30.678 10.308 46.47 6.048l47.088-12.706c-1.312-7.964-2.028-16.128-2.028-24.462 0-29.438 17.312-64.228 39.562-96.79 0.974-2.55 2.472-4.946 4.528-7.002 0.318-0.318 0.658-0.604 0.992-0.898 35.794-50.096 81.14-93.284 89.256-100.874 3.844-3.594 8.752-5.392 13.66-5.392s9.816 1.796 13.66 5.392c13.75 12.858 134.34 127.862 134.34 205.564 0 82.184-66.392 149.044-148 149.044-59.366 0-110.65-35.4-134.212-86.326l-48.43 13.068c-26.112 7.046-53.402 3.494-76.834-9.994-0.958-0.55-1.904-1.116-2.838-1.694-21.016-13.020-36.506-33.24-43.616-56.934l-23.224-77.412-124.852-82.22v69.922c0 25.972-13.394 49.29-35.828 62.376-22.432 13.084-49.324 13.266-71.93 0.482l-58.318-32.978v387.715c0.752 0.364 1.5 0.752 2.218 1.218l85.304 55.346c22.424 14.548 35.81 39.194 35.81 65.922v81.51c0 0.144-0.018 0.284-0.022 0.428l184.69 121.626 189.672-124.906c9.228-6.076 21.628-3.522 27.704 5.704s3.522 21.628-5.704 27.704l-200.672 132.148c-6.676 4.396-15.324 4.396-22 0l-327.999-216c-5.618-3.7-9-9.976-9-16.704v-556.331c0-0.014 0-0.026 0-0.040v-211.628c0-7.356 4.038-14.118 10.512-17.606 6.476-3.49 14.342-3.142 20.488 0.904l166.228 109.466c0.018 0.012 150.772 99.29 150.772 99.29l316.999-208.756c3.338-2.198 7.168-3.296 11-3.296s7.662 1.098 11 3.296l327.999 216c5.618 3.7 9 9.976 9 16.704v767.999c0 7.354-4.038 14.114-10.512 17.604zM768.002 647.835c-46.526 46.478-108 121.802-108 163.12 0 60.126 48.448 109.044 108 109.044s108-48.916 108-109.044c0-41.32-61.476-116.644-108-163.12zM749.433 316.137c11.764-17.458 18.652-38.522 18.652-61.184 0-41.318-61.476-116.642-108-163.118-20.266 20.246-43.368 45.966-62.99 71.964l25.386 25.386c11.098-6.338 23.928-9.98 37.604-9.98 41.908 0 76.002 34.036 76.002 75.872 0 13.698-3.674 26.548-10.062 37.652l23.408 23.408zM624.789 248.063c-0.454 2.27-0.702 4.612-0.702 7.014 0 19.778 16.148 35.87 35.998 35.87 2.364 0 4.672-0.244 6.91-0.678l-42.206-42.206zM695.387 262.089c0.452-2.27 0.7-4.614 0.7-7.014 0-19.78-16.15-35.872-36.002-35.872-2.362 0-4.668 0.244-6.906 0.678l42.208 42.208zM660.085 363.999c22.754 0 43.874-7.16 61.302-19.338l-23.696-23.696c-11.098 6.338-23.932 9.98-37.608 9.98-41.906 0-75.998-34.036-75.998-75.87 0-13.698 3.674-26.55 10.062-37.654l-20.092-20.092c-13.298 21.786-21.974 42.104-21.974 57.624 0.004 60.13 48.452 109.046 108.004 109.046zM40.002 713.224l83.334 54.876v-55.612c0-13.124-6.572-25.224-17.582-32.366l-65.752-42.658v75.76zM166.082 76.148l-126.080-83.028v163.214l78.012 44.116c10.084 5.704 22.080 5.624 32.086-0.214 10.008-5.836 15.982-16.238 15.982-27.824v-96.264zM480.559 661.271c-7.808 7.81-20.472 7.81-28.284 0l-0.332-0.332c-7.81-7.81-7.81-20.474 0-28.286 3.906-3.906 9.024-5.858 14.142-5.858s10.238 1.952 14.142 5.858l0.332 0.332c7.81 7.808 7.81 20.474 0 28.286zM405.991 710.718l-23.964 15.73c-42.96 28.2-98.664 25.426-138.608-6.904-8.584-6.95-9.912-19.542-2.962-28.128 6.948-8.584 19.54-9.912 28.128-2.962 26.366 21.342 63.134 23.172 91.492 4.556l23.964-15.73c3.382-2.224 7.19-3.284 10.956-3.284 6.512 0 12.898 3.176 16.738 9.026 6.062 9.236 3.49 21.634-5.744 27.696z" />
<glyph unicode="&#xe958;" glyph-name="maze" d="M512 960c-112.768 0-220.916-37.736-312.756-109.126-13.082-10.168-15.442-29.016-5.274-42.098 10.168-13.084 29.018-15.44 42.098-5.274 81.21 63.13 176.626 96.498 275.932 96.498 196.674 0 364.382-126.278 426.382-302h-66.37c-60.3 144.404-202.36 240-360.012 240-215.046 0-390-174.954-390-390 0-58.806 12.826-115.368 38.118-168.116 7.146-14.902 25.046-21.26 40.022-14.080 14.94 7.164 21.244 25.084 14.080 40.022-21.38 44.586-32.22 92.42-32.22 142.174 0 171.85 132.046 313.414 300 328.622v-60.278c-134.81-14.972-240-129.606-240-268.344 0-63.654 22.156-122.224 59.142-168.432l-129.102-129.102c-69.716 79.556-112.040 183.69-112.040 297.534 0 99.306 33.368 194.722 96.498 275.932 10.168 13.082 7.808 31.928-5.274 42.098-13.084 10.17-31.928 7.808-42.098-5.274-71.39-91.84-109.126-199.988-109.126-312.756 0-281.918 230.1-512 512-512 281.918 0 512 230.098 512 512 0 281.918-230.098 512-512 512zM214.466 108.040l129.102 129.102c46.208-36.986 104.778-59.142 168.432-59.142 138.738 0 253.352 105.188 268.324 240h60.324c-7.15-79.010-42.274-150.066-95.354-203.172-0.020-0.020-0.044-0.038-0.064-0.058-0.014-0.014-0.026-0.032-0.042-0.046-59.75-59.728-142.228-96.724-233.188-96.724-49.754 0-97.588 10.84-142.172 32.22-14.944 7.166-32.86 0.86-40.022-14.080-7.164-14.94-0.86-32.858 14.080-40.022 52.746-25.292 109.308-38.118 168.114-38.118 96.748 0 185.37 35.424 253.606 93.968l43.928-43.928c-79.556-69.716-183.69-112.040-297.534-112.040s-217.978 42.324-297.534 112.040zM851.96 150.466l-43.928 43.928c58.542 68.236 93.968 156.858 93.968 253.606 0 16.568-13.432 30-30 30h-91.726c-9.532 84.292-58.738 160.56-133.228 203.744-14.334 8.31-32.694 3.426-41-10.908-8.31-14.334-3.428-32.69 10.906-41 64.796-37.564 105.048-107.24 105.048-181.836 0-115.794-94.206-210-210-210-106.060 0-193.308 78.8-207.848 180h87.848c16.568 0 30 13.432 30 30 0 49.626 40.374 90 90 90s90-40.374 90-90-40.374-90-90-90c-16.696 0-32.984 4.596-47.102 13.29-14.104 8.688-32.588 4.292-41.276-9.814-8.688-14.108-4.294-32.588 9.814-41.276 23.586-14.524 50.752-22.2 78.564-22.2 82.71 0 150 67.29 150 150s-67.29 150-150 150c-72.438 0-133.048-51.618-146.986-120h-60.862c14.602 101.634 102.238 180 207.848 180 16.568 0 30 13.432 30 30v88.616c127.132-11.644 237.882-96.552 281.164-218.64 4.244-11.974 15.572-19.976 28.276-19.976h103.55c5.902-29.094 9.012-59.19 9.012-90-0.002-113.844-42.324-217.976-112.042-297.534z" />
<glyph unicode="&#xe959;" glyph-name="knowledge" d="M934.963 261.673c-10.025 0-19.969-1.707-29.554-5.078l-281.661-99.003c1.227 5.913 1.873 12.036 1.873 18.31 0 49.605-40.358 89.963-89.963 89.963h-263.254c-81.465 0-158.054-31.724-215.657-89.329l-56.51-56.508v-184.028h651.63l321.939 156.834c30.348 14.785 49.957 46.149 49.957 79.907 0.002 49.038-39.834 88.931-88.799 88.931zM947.543 146.75l-309.507-150.777h-577.828v99.213l38.944 38.944c46.277 46.277 107.805 71.761 173.251 71.761h263.252c16.536 0 29.99-13.454 29.99-29.99s-13.454-29.988-29.99-29.988h-190.577v-59.973h255.671l324.544 114.076c3.181 1.117 6.433 1.685 9.668 1.685 13.866 0 28.829-11.073 28.829-28.959 0.002-10.981-6.375-21.182-16.247-25.992zM365.677 538.655c16.185-12.796 25.466-31.739 25.466-51.976v-77.393l37.133-77.123h167.451l37.133 77.123v77.201c0 20.341 9.322 39.388 25.574 52.254 56.974 45.101 89.649 112.597 89.649 185.175-0.002 130.177-105.908 236.084-236.084 236.084-3.041 0-6.125-0.060-9.172-0.174-61.158-2.325-118.338-28.109-161.008-72.605-42.645-44.47-66.050-102.671-65.902-163.883 0.176-72.405 32.891-139.72 89.759-184.684zM558.039 392.136h-92.080l-14.845 30.834v33.723h121.77v-33.723zM385.106 845.71c31.849 33.211 74.466 52.456 119.999 54.185 2.291 0.086 4.612 0.132 6.895 0.132 97.108 0 176.11-79.004 176.11-176.11 0-54.141-24.385-104.496-66.899-138.153-22.552-17.852-38.003-42.117-44.642-69.098h-129.097c-6.611 26.964-22.052 51.209-44.598 69.034-42.437 33.555-66.849 83.774-66.981 137.781-0.112 45.609 17.366 89.019 49.214 122.228zM126.794 753.394h89.147v-59.973h-89.147zM163.407 890.029l29.986 51.936 77.202-44.574-29.986-51.936zM163.4 556.793l77.202 44.574 29.986-51.936-77.202-44.574zM808.051 753.394h89.147v-59.973h-89.147zM753.378 897.396l77.202 44.574 29.986-51.936-77.202-44.574zM753.388 549.398l29.986 51.936 77.202-44.574-29.986-51.936z" />
</font>
</defs>
</svg>
